.
Авторизация | Регистрация
Хочешь лучшие торренты? Добавь свой email!
Добавить
» » Перси Джексон и Море чудовищ / Percy Jackson: Sea of Monsters (2013) BDRip 1080p | D | Чистый звук скачать торрент бесплатно




    Перси Джексон и Море чудовищ / Percy Jackson: Sea of Monsters (2013) BDRip 1080p | D | Чистый звук скачать торрент бесплатно

    Опубликовал: Админ | Дата: 27-02-2015, 11:09 | Просмотров: 279



    Русское название: Перси Джексон и Море чудовищ
    Русское название в мировом прокате: Percy Jackson: Sea of Monsters
    Создали в: 2013
    Категория жанра: Фэнтези, приключения, семейный
    Снималось в: США, Fox 2000 Pictures, Sunswept Entertainment, 1492 Pictures
    Время просмотра: 01:46:30
    Перевод текста: Профессиональный (дублированный) Чистый звук
    Субтитры подготовлены: нет

    Главный режиссер: Тор Фройденталь

    Актеры: Логан Лерман, Александра Даддарио, Дуглас Смит, Ливэн Рамбин, Брэндон Т. Джексон, Джейк Эйбел, Энтони Хэд, Стэнли Туччи, Коннор Крэш Данн, Палома Квиатковски

    Сюжет фильма:
    Лагерь полукровок атакует Люк Кастеллан, который раскрывает свои планы по уничтожению горы Олимп. Наставник Перси, Хирон узнает, что Люк отравил волшебное дерево, которое отвечает за барьер, защищающий Лагерь Полукровок, и которое создано из Талии Грейс, дочери Зевса, убитой циклопом. Аннабет Чейз выясняет, что Золотое Руно может восстановить дерево, и директор лагеря, Дионис, посылает Клариссу Ла Ру, дочь Ареса и соперницу Перси, найти его…

    Качество фильма: BDRip 1080p
    Информация о видео: MPEG-4 AVC, 8733 Кбит/с, 1912x808
    Информация о звуке: Русский (AC3, 6 ch, 384 Кбит/с), английский (DTS, 6 ch, 1510 Кбит/с), (AC3, 6 ch, 640 Кбит/с)
    Семпл

    MI
    Формат : Matroska
    Версия формата : Version 2
    Размер файла : 8,38 Гбайт
    Продолжительность : 1 ч. 46 м.
    Общий поток : 11,3 Мбит/сек
    Дата кодирования : UTC 2013-11-14 09:52:06
    Программа кодирования : mkvmerge v5.8.0 (;No Sleep / Pillow;) built on Sep 2 2012 15:37:04
    Библиотека кодирования : libebml v1.2.3 libmatroska v1.3.0

    Видео
    Идентификатор : 1
    Формат : AVC
    Формат/Информация : Advanced Video Codec
    Профиль формата : High@L4.1
    Параметр CABAC формата : Да
    Параметр ReFrames формата : 4 кадра
    Идентификатор кодека : V_MPEG4/ISO/AVC
    Продолжительность : 1 ч. 46 м.
    Битрейт : 8733 Кбит/сек
    Ширина : 1912 пикселей
    Высота : 808 пикселей
    Соотношение сторон : 2,35:1
    Режим частоты кадров : Постоянный
    Частота кадров : 23,976 кадра/сек
    Цветовое пространство : YUV
    Субдискретизация насыщенности : 4:2:0
    Битовая глубина : 8 бит
    Тип развёртки : Прогрессивная
    Бит/(Пиксели*Кадры) : 0.236
    Размер потока : 6,33 Гбайт (76%)
    Заголовок : Percy.Jackson.Sea.of.Monsters.2013
    Библиотека кодирования : x264 core 140 r2377 1ca7bb9
    Настройки программы : cabac=1 / ref=5 / deblock=1:-1:-1 / analyse=0x3:0x133 / me=umh / subme=7 / psy=1 / psy_rd=1.00:0.15 / mixed_ref=1 / me_range=16 / chroma_me=1 / trellis=2 / 8x8dct=1 / cqm=1 / deadzone=21,11 / fast_pskip=1 / chroma_qp_offset=-3 / threads=12 / lookahead_threads=2 / sliced_threads=0 / slices=4 / nr=0 / decimate=1 / interlaced=0 / bluray_compat=1 / constrained_intra=0 / bframes=3 / b_pyramid=1 / b_adapt=2 / b_bias=0 / direct=1 / weightb=1 / open_gop=0 / weightp=1 / keyint=240 / keyint_min=1 / scenecut=40 / intra_refresh=0 / rc_lookahead=40 / rc=2pass / mbtree=1 / bitrate=8733 / ratetol=1.0 / qcomp=0.60 / qpmin=10 / qpmax=69 / qpstep=4 / cplxblur=20.0 / qblur=0.5 / vbv_maxrate=62500 / vbv_bufsize=78125 / nal_hrd=vbr / filler=0 / ip_ratio=1.40 / aq=1:1.00
    Язык : English
    Default : Да
    Forced : Нет

    Аудио #1
    Идентификатор : 2
    Формат : DTS
    Формат/Информация : Digital Theater Systems
    Режим : 16
    Параметр Endianness формата : Big
    Идентификатор кодека : A_DTS
    Продолжительность : 1 ч. 46 м.
    Вид битрейта : Постоянный
    Битрейт : 1510 Кбит/сек
    Каналы : 6 каналов
    Расположение каналов : Front: L C R, Side: L R, LFE
    Частота : 48,0 КГц
    Битовая глубина : 24 бит
    Метод сжатия : С потерями
    Размер потока : 1,12 Гбайт (13%)
    Язык : English
    Default : Нет
    Forced : Нет

    Аудио #2
    Идентификатор : 3
    Формат : AC-3
    Формат/Информация : Audio Coding 3
    Расширение режима : CM (complete main)
    Параметр Endianness формата : Big
    Идентификатор кодека : A_AC3
    Продолжительность : 1 ч. 46 м.
    Вид битрейта : Постоянный
    Битрейт : 640 Кбит/сек
    Каналы : 6 каналов
    Расположение каналов : Front: L C R, Side: L R, LFE
    Частота : 48,0 КГц
    Битовая глубина : 16 бит
    Метод сжатия : С потерями
    Размер потока : 488 Мбайт (6%)
    Язык : English
    Default : Нет
    Forced : Нет

    Аудио #3
    Идентификатор : 4
    Формат : AC-3
    Формат/Информация : Audio Coding 3
    Расширение режима : CM (complete main)
    Параметр Endianness формата : Big
    Идентификатор кодека : A_AC3
    Продолжительность : 1 ч. 46 м.
    Вид битрейта : Постоянный
    Битрейт : 384 Кбит/сек
    Каналы : 6 каналов
    Расположение каналов : Front: L C R, Side: L R, LFE
    Частота : 48,0 КГц
    Битовая глубина : 16 бит
    Метод сжатия : С потерями
    Размер потока : 293 Мбайт (3%)
    Язык : Russian
    Default : Да
    Forced : Нет

    Меню
    00:00:00.000 : en:1
    00:04:06.000 : en:2
    00:06:44.000 : en:3
    00:09:32.000 : en:4
    00:13:54.000 : en:5
    00:19:18.000 : en:6
    00:20:49.000 : en:7
    00:22:11.000 : en:8
    00:25:30.000 : en:9
    00:28:24.000 : en:10
    00:30:28.000 : en:11
    00:33:21.000 : en:12
    00:37:02.000 : en:13
    00:39:50.000 : en:14
    00:45:17.000 : en:15
    00:48:51.000 : en:16
    00:52:44.000 : en:17
    00:56:36.000 : en:18
    01:00:21.000 : en:19
    01:03:37.000 : en:20
    01:05:42.000 : en:21
    01:10:43.000 : en:22
    01:12:33.000 : en:23
    01:16:54.000 : en:24
    01:19:40.000 : en:25
    01:23:03.000 : en:26
    01:25:49.000 : en:27
    01:29:55.000 : en:28
    01:32:48.000 : en:29
    01:34:26.000 : en:30
    01:36:09.000 : en:31
    01:37:39.000 : en:32
    Скриншоты для ознакомления

    Размер скачиваемого торрента: 8.38 GB (8998018643 Bytes)

    Перси Джексон и Море чудовищ / Percy Jackson: Sea of Monsters (2013) BDRip 1080p | D | Чистый звук торрент скачать бесплатно
    загрузка...
    Рейтинг →
     (голосов: 1, оценка 4/5, голосовать можно 1 раз )

    Другие торренты по теме:

  • OST - Перси Джексон и похититель молний / Percy Jackson And The Lightening Thief (2010) MP3
  • Перси Джексон и похититель молний / Percy Jackson and the Olympians: The Lightning Thief (2010) BDRip-AVC от potroks | D
  • Перси Джексон: Море чудовищ / Percy Jackson: Sea of Monsters (2013) HD 1080p | Трейлер
  • Перси Джексон и похититель молний / Percy Jackson the Olympians: The Lightning Thief (2010) BDRip 1080p от NoLimits-Team
  • Перси Джексон и Море чудовищ / Percy Jackson: Sea of Monsters (2013) CAMRip*PROPER* от INTERCINEMA
  • Перси Джексон и Море чудовищ / Percy Jackson: Sea of Monsters (2013) TS от INTERCINEMA
  • Перси Джексон и Море чудовищ / Percy Jackson: Sea of Monsters (2013) WEB-DLRip 1080p | Звук с CAMRip
  • Перси Джексон и Море чудовищ / Percy Jackson: Sea of Monsters (2013) WEB-DLRip | Звук с CAMRip


    • Комментарии (0):

      Информация

      Информация

        Посетители, находящиеся в группе Гости, не могут оставлять комментарии в данной новости.

        ↓ Меню



        ↓ Опрос

        А Вы добавили сайт в закладки?
        Да
        Не


        Top 10 за месяц (Фильмы)