.
Авторизация | Регистрация
Хочешь лучшие торренты? Добавь свой email!
Добавить
» » Малавита / The Family (2013) DVDRip от SANNYa | D | Лицензия скачать через торрент бесплатно




    Малавита / The Family (2013) DVDRip от SANNYa | D | Лицензия скачать через торрент бесплатно

    Опубликовал: Админ | Дата: 27-02-2015, 11:09 | Просмотров: 384



    Создали в: 2013
    Снималось в: США, Франция
    Категория жанра: криминал, комедия, боевик
    Время просмотра: 01:46:56
    Перевод текста: Профессиональный (полное дублирование)
    Русские субтитры: нет

    Главный режиссер: Люк Бессон / Luc Besson

    Актеры: Роберт Де Ниро, Мишель Пфайффер, Томми Ли Джонс, Дианна Агрон, Джон Фреда, Рикардо Сорберо, Доминик Кьянезе, Дэвид Белль, Джон ДЛео, Джино Кафарелли

    Сюжет: Что вы знаете о своих соседях? Особенно о тех, которые заявляются среди ночи Так, однажды на тихой улочке провинциального французского городка поселился писатель по фамилии Блейк, со своим семейством и собакой Малавитой. На этом многовековое спокойствие города закончилось. Почему сгорел местный супермаркет? Чем рискует медлительный водопроводчик? Что лежит в рюкзаке у милого парня в бежевых бриджах?
    Кто бы мог представить, что на самом деле мистер Блейк бывший глава мафии, которого власти прячут здесь от преследования. И вот в городок приезжают люди Коза Ностры

    Качество фильма: DVDRip / Сэмпл
    Тип видео: AVI

    Информация о видео: 720x304 (2.37:1), 25 fps, XviD build 73 ~1565 kbps avg, 0.29 bit/pixel
    Информация о звуке: 48 kHz, AC3 Dolby Digital, 3/2 (L,C,R,l,r) LFE ch, ~384 kbps

    Релиз подготовил:

    MI

    Общее
    Полное имя : C:UsersАлександрDesktopМалавита_2013_DVDRip_by_SANNYa.avi
    Формат : AVI
    Формат/Информация : Audio Video Interleave
    Размер файла : 1,46 Гбайт
    Продолжительность : 1 ч. 46 м.
    Общий поток : 1959 Кбит/сек
    Программа кодирования : VirtualDubMod 1.5.10.3 | www.virtualdub-fr.org || (build 2550/release)
    Библиотека кодирования : VirtualDubMod build 2550/release

    Видео
    Идентификатор : 0
    Формат : MPEG-4 Visual
    Профиль формата : Advanced Simple@L5
    Параметр BVOP формата : 1
    Параметр QPel формата : Нет
    Параметр GMC формата : Без точки перехода
    Параметр матрицы формата : Выборочная
    Идентификатор кодека : XVID
    Идентификатор кодека/Подсказка : XviD
    Продолжительность : 1 ч. 46 м.
    Битрейт : 1566 Кбит/сек
    Ширина : 720 пикселей
    Высота : 304 пикселя
    Соотношение сторон : 2,35:1
    Частота кадров : 25,000 кадров/сек
    Цветовое пространство : YUV
    Субдискретизация насыщенности : 4:2:0
    Битовая глубина : 8 бит
    Тип развёртки : Прогрессивная
    Метод сжатия : С потерями
    Бит/(Пиксели*Кадры) : 0.286
    Размер потока : 1,17 Гбайт (80%)
    Библиотека кодирования : XviD 73

    Аудио
    Идентификатор : 1
    Формат : AC-3
    Формат/Информация : Audio Coding 3
    Расширение режима : CM (complete main)
    Параметр Endianness формата : Big
    Идентификатор кодека : 2000
    Продолжительность : 1 ч. 46 м.
    Вид битрейта : Постоянный
    Битрейт : 384 Кбит/сек
    Каналы : 6 каналов
    Расположение каналов : Front: L C R, Side: L R, LFE
    Частота : 48,0 КГц
    Битовая глубина : 16 бит
    Метод сжатия : С потерями
    Размер потока : 294 Мбайт (20%)
    Выравнивание : Разделение по промежуткам
    Продолжительность промежутка : 40 мс. (1,00 видеокадр)
    Время предзагрузки промежутка : 500 мс.

    Скриншоты для ознакомления





    Залил: _Bathory_
    Размер скачиваемого торрента: 1.46 GB (1571733504 Bytes)

    Малавита / The Family (2013) DVDRip от SANNYa | D | Лицензия скачать через торрент бесплатно
    загрузка...
    Рейтинг →
     (голосов: 1, оценка 3/5, голосовать можно 1 раз )

    Другие торренты по теме:

  • Малавита / The Family (2013) CAMRip от INTERCINEMA | D скачать бесплатно через торрент
  • Малавита / The Family (2013) CAMRip-AVC | D, A скачать через торрент бесплатно
  • Малавита / The Family (2013) DVDRip | Гоблин
  • Малавита / The Family (2013) DVDRip от INTERCINEMA | Чистый звук
  • Малавита / The Family (2013) DVDRip | D | Чистый звук скачать через торрент бесплатно
  • Малавита / The Family (2013) DVD5 | Лицензия
  • Малавита / The Family (2013) DVDRip-AVC | Лицензия скачать через торрент бесплатно
  • Малавита / The Family (2013) DVDRip-AVC от New-Team | D | Лицензия скачать через торрент бесплатно


    • Комментарии (0):

      Информация

      Информация

        Посетители, находящиеся в группе Гости, не могут оставлять комментарии в данной новости.

        ↓ Меню



        ↓ Опрос

        А Вы добавили сайт в закладки?
        Да
        Не


        Top 10 за месяц (Фильмы)