.
Авторизация | Регистрация
Хочешь лучшие торренты? Добавь свой email!
Добавить
» » Мачете убивает / Machete Kills (2013) HDTVRip от BitTracker | Чистый звук скачать через торрент бесплатно




    Мачете убивает / Machete Kills (2013) HDTVRip от BitTracker | Чистый звук скачать через торрент бесплатно

    Опубликовал: Админ | Дата: 27-02-2015, 11:09 | Просмотров: 328



    Детально о кино
    Русское название: Мачете убивает
    Русское название в мировом прокате: Machete Kills
    Создали в: 2013
    Категория жанра: боевик, комедия
    Главный режиссер: Роберт Родригес
    Актеры: Дэнни Трехо, Мишель Родригес, София Вергара, Эмбер Хёрд, Леди Гага, Антонио Бандерас, Кьюба Гудинг мл., Джессика Альба, Демиан Бишир, Мэл Гибсон...

    Сюжет фильма:
    Правительство США вербует Мачете для миссии, которую не под силу выполнить простому смертному. Мачете прорывается в Мексику, чтобы схватить безумного лидера карательного отряда и эксцентричного миллиардера, торгующего оружием, который, в свою очередь, лелеет мечту начать войну планетарного масштаба и запустить смертельно опасное оружие в космос. И только Мачете может предотвратить этот глобальный хаос.




    Снималось в: США
    Время просмотра: 01:43:03
    Перевод текста: Дублированное Чистый звук

    Файл
    Кодек для видео: XviD
    Качество фильма: HDTVRip
    Информация о видео: 624x336 (1.86:1), 25 fps, XviD build 50 ~874 kbps avg, 0.17 bit/pixel
    Информация о звуке: 48 kHz, MPEG Layer 3, 2 ch, ~128.00 kbps avg
    Субтитры: нет

    Семпл

    MediaInfo

    Общее
    Полное имя : S:ФильмыМачете убивает. 2013. HDTVRip (AleksSin).avi
    Формат : AVI
    Формат/Информация : Audio Video Interleave
    Размер файла : 746 Мбайт
    Продолжительность : 1 ч. 43 м.
    Общий поток : 1012 Кбит/сек
    Программа кодирования : VirtualDubMod 1.5.10.3 | www.virtualdub-fr.org || (build 2550/release)
    Библиотека кодирования : VirtualDubMod build 2550/release

    Видео
    Идентификатор : 0
    Формат : MPEG-4 Visual
    Профиль формата : Advanced Simple@L5
    Параметр BVOP формата : 2
    Параметр QPel формата : Нет
    Параметр GMC формата : Без точки перехода
    Параметр матрицы формата : Default (H.263)
    Идентификатор кодека : XVID
    Идентификатор кодека/Подсказка : XviD
    Продолжительность : 1 ч. 43 м.
    Битрейт : 874 Кбит/сек
    Ширина : 624 пикс.
    Высота : 336 пикс.
    Соотношение сторон : 1,857
    Частота кадров : 25,000 кадр/сек
    Цветовое пространство : YUV
    Подвыборка цветности : 4:2:0
    Битовая глубина : 8 бит
    Тип развёртки : Прогрессивная
    Метод сжатия : С потерями
    Бит/(Пиксели*Кадры) : 0.167
    Размер потока : 644 Мбайт (86%)
    Библиотека кодирования : XviD 1.2.1 (UTC 2008-12-04)

    Аудио
    Идентификатор : 1
    Формат : MPEG Audio
    Версия формата : Version 1
    Профиль формата : Layer 3
    Режим : Joint stereo
    Расширение режима : MS Stereo
    Идентификатор кодека : 55
    Идентификатор кодека/Подсказка : MP3
    Продолжительность : 1 ч. 43 м.
    Вид битрейта : Постоянный
    Битрейт : 128 Кбит/сек
    Каналы : 2 канала
    Частота : 48,0 КГц
    Метод сжатия : С потерями
    Размер потока : 94,4 Мбайт (13%)
    Выравнивание : Соединение по промежуткам
    Продолжительность промежутка : 40 мс. (1,00 видеокадр)
    Время предзагрузки промежутка : 504 ms

    Скриншоты для ознакомления


    Релиз подготовил:
    Залил: AleksSin
    Размер скачиваемого торрента: 745.66 MB (781881344 Bytes)

    Мачете убивает / Machete Kills (2013) HDTVRip от BitTracker | Чистый звук скачать через торрент бесплатно
    загрузка...
    Рейтинг →
     (голосов: 1, оценка 3/5, голосовать можно 1 раз )

    Другие торренты по теме:

  • Мачете убивает / Machete Kills (2013) HD 720p | L1
  • Мачете убивает (2013) скачать через торрент бесплатно
  • OST - Мачете убивает / Machete Kills (2013) MP3 скачать через торрент бесплатно
  • Мачете убивает / Machete Kills (2013) HDTVRip 720p | Звук с TS
  • Мачете убивает / Machete Kills (2013) HDTV 1080p | Звук с CAMRip
  • Мачете убивает / Machete Kills (2013) HDTVRip | Звук с TS
  • Мачете убивает / Machete Kills (2013) HDTVRip 720p | Чистый звук
  • Мачете убивает / Machete Kills (2013) HDTVRip | Чистый звук


    • Комментарии (0):

      Информация

      Информация

        Посетители, находящиеся в группе Гости, не могут оставлять комментарии в данной новости.

        ↓ Меню



        ↓ Опрос

        А Вы добавили сайт в закладки?
        Да
        Не


        Top 10 за месяц (Фильмы)