.
Авторизация | Регистрация
Хочешь лучшие торренты? Добавь свой email!
Добавить
» » На грани сомнения / Suspension of Disbelief (2012) WEB-DLRip-AVC | L2 скачать торрент бесплатно




    На грани сомнения / Suspension of Disbelief (2012) WEB-DLRip-AVC | L2 скачать торрент бесплатно

    Опубликовал: Админ | Дата: 27-02-2015, 11:09 | Просмотров: 255



    Детально о кино
    Русское название: На грани сомнения
    Русское название в мировом прокате: Suspension of Disbelief
    Создали в: 2012
    Категория жанра: триллер
    Главный режиссер: Майк Фиггис
    Актеры: Себастьян Кох, Лотте Вербеек, Эмилия Фокс, Ребекка Найт, Оуэн Мэкен, Локлен Нибор, Фрэнсис де ла Тур, Джулиан Сэндс, Кеннет Крэнэ, Пэрис Эрроусмит

    Сюжет фильма: Теряясь в размытых границах между реальностью и вымыслом, мы наблюдаем за известным писателем, воплощающим свои потаенные фантазии и оказывающимся замешанным в убийстве.



    Снималось в: Великобритания
    Время просмотра: 01:47:07
    Тип перевода: Любительское (двуголосое) DeadSno den904

    Файл
    Тип видео: MKV
    Качество фильма: WEB-DLRip-AVC
    Информация о видео: 1561 kb/s, 1024x576
    Информация о звуке: Russian: AC3, 192 kb/s (2 ch) / English: AC3, 192 kb/s (6 ch)





    MI

    Format : Matroska
    Format version : Version 4 / Version 2
    File size : 1.46 GiB
    Duration : 1h 47mn
    Overall bit rate : 1 943 Kbps
    Movie name : Rip by 03nazar03
    Encoded date : UTC 2013-11-14 23:05:46
    Writing application : mkvmerge v6.1.0 (;Old Devil;) built on Mar 4 2013 09:10:42
    Writing library : libebml v1.3.0 libmatroska v1.4.0

    Video
    ID : 1
    Format : AVC
    Format/Info : Advanced Video Codec
    Format profile : High@L4.1
    Format settings, CABAC : Yes
    Format settings, ReFrames : 10 frames
    Codec ID : V_MPEG4/ISO/AVC
    Duration : 1h 47mn
    Bit rate : 1 561 Kbps
    Width : 1 024 pixels
    Height : 576 pixels
    Display aspect ratio : 16:9
    Frame rate : 25.000 fps
    Color space : YUV
    Chroma subsampling : 4:2:0
    Bit depth : 8 bits
    Scan type : Progressive
    Bits/(Pixel*Frame) : 0.106
    Stream size : 1.14 GiB (78%)
    Writing library : x264 core 130 r2273 b3065e6
    Encoding settings : cabac=1 / ref=10 / deblock=1:-3:-3 / analyse=0x3:0x133 / me=umh / subme=10 / psy=1 / psy_rd=1.00:0.20 / mixed_ref=1 / me_range=32 / chroma_me=1 / trellis=2 / 8x8dct=1 / cqm=0 / deadzone=21,11 / fast_pskip=0 / chroma_qp_offset=-3 / threads=6 / lookahead_threads=1 / sliced_threads=0 / nr=0 / decimate=0 / interlaced=0 / bluray_compat=0 / constrained_intra=0 / bframes=8 / b_pyramid=2 / b_adapt=2 / b_bias=0 / direct=3 / weightb=1 / open_gop=0 / weightp=2 / keyint=250 / keyint_min=25 / scenecut=40 / intra_refresh=0 / rc=2pass / mbtree=0 / bitrate=1561 / ratetol=1.0 / qcomp=0.60 / qpmin=0 / qpmax=69 / qpstep=4 / cplxblur=20.0 / qblur=0.5 / ip_ratio=1.40 / pb_ratio=1.30 / aq=1:1.00
    Language : English
    Default : Yes
    Forced : No

    Audio #1
    ID : 2
    Format : AC-3
    Format/Info : Audio Coding 3
    Mode extension : CM (complete main)
    Format settings, Endianness : Big
    Codec ID : A_AC3
    Duration : 1h 47mn
    Bit rate mode : Constant
    Bit rate : 192 Kbps
    Channel(s) : 2 channels
    Channel positions : Front: L R
    Sampling rate : 48.0 KHz
    Bit depth : 16 bits
    Compression mode : Lossy
    Stream size : 147 MiB (10%)
    Language : Russian
    Default : Yes
    Forced : No

    Audio #2
    ID : 3
    Format : AC-3
    Format/Info : Audio Coding 3
    Mode extension : CM (complete main)
    Format settings, Endianness : Big
    Codec ID : A_AC3
    Duration : 1h 47mn
    Bit rate mode : Constant
    Bit rate : 192 Kbps
    Channel(s) : 6 channels
    Channel positions : Front: L C R, Side: L R, LFE
    Sampling rate : 48.0 KHz
    Bit depth : 16 bits
    Compression mode : Lossy
    Stream size : 147 MiB (10%)
    Language : English
    Default : No
    Forced : No
    Скриншоты для ознакомления


    Рип: 03nazar03
    Размер скачиваемого торрента: 1.46 GB (1563286490 Bytes)

    На грани сомнения / Suspension of Disbelief (2012) WEB-DLRip-AVC | L2 торрент скачать бесплатно
    загрузка...
    Рейтинг →
     (голосов: 1, оценка 4/5, голосовать можно 1 раз )

    Другие торренты по теме:

  • Танцы на грани / Танцы на краю / Dancing on the Edge (2013) HDTVRip 720р | Baibako
  • Танцы на краю / Танцы на грани / Dancing on the Edge (2013) HDTVRip-AVC 1080p l BaibaKo
  • На грани / The Edge (1997) HDRip от Scarabey | Р
  • Неукротимый / На грани безумия / Frantic (1988) HDRip | D
  • Отдых на грани нервного срыва / Ni a vendre ni a louer (2011) DVDRip
  • Кузина Светлана - На грани хаоса. Все врут! (2013) MP3
  • На грани безумия / Edge Of Sanity (1989) HDTVRip 720p от ClubTorrent | P2
  • На грани сомнения / Suspension of Disbelief (2012) WEB-DL 720p от CINEMANIA | L2 скачать через торрент бесплатно


    • Комментарии (0):

      Информация

      Информация

        Посетители, находящиеся в группе Гости, не могут оставлять комментарии в данной новости.

        ↓ Меню



        ↓ Опрос

        А Вы добавили сайт в закладки?
        Да
        Не


        Top 10 за месяц (Фильмы)