.
Авторизация | Регистрация
Хочешь лучшие торренты? Добавь свой email!
Добавить
» » Сломанные цветы / Broken Flowers (2005) ВDRip от New-Team скачать через торрент бесплатно




    Сломанные цветы / Broken Flowers (2005) ВDRip от New-Team скачать через торрент бесплатно

    Опубликовал: Админ | Дата: 27-02-2015, 11:09 | Просмотров: 256


    Снималось в: США, Франция
    Создали в: Bac Films, Five Roses, Focus Features
    Категория жанра: драма, комедия, детектив
    Создали в: 2005
    Время просмотра: 01:41:22

    Перевод текста: Профессиональный (Многоголосый, закадровый)
    Оригинальная аудиодорожка: нет
    Субтитры подготовлены: нет

    Главный режиссер: Джим Джармуш / Jim Jarmusch

    Актеры:
    Билл Мюррэй, Джеффри Райт, Шэрон Стоун, Фрэнсис Конрой, Джессика Лэнг, Тильда Суинтон, Жюли Дельпи, Мар Уэббер, Хлои Севиньи...

    Сюжет:
    Утро для престарелого Дон Жуана Дона Джонстона начинается с того, что от него уходит очередная подружка Шерри, потеряв веру в то, что с этим человеком можно создать семью. Оставшись в одиночестве, разбирая почту, Дон обнаруживает розовый конверт. В письме неизвестная сообщает, что двадцать лет назад, расставшись с Доном, обнаружила, что беременна. Не обращаясь за помощью к Дону, вырастила сына, которому уже 19 лет. И мальчик, которому мама не сообщила, кто его отец, решил самостоятельно увидеть папу и ушёл из дома. Дама писала, что ничего не хочет от Дона, просто предупреждает, что встреча отца с сыном вполне возможна. Показав письмо другу Уинстону — любителю детективов — Дон получил от того совет: вспомнить всех своих подружек, которые у него были 20 лет назад и посетить их, выяснив, какая из них родила ему сына…




    Исходник: BDRemux 1080p
    Тип релиза: BDRip
    Контейнер: AVI

    Информация о видео: 720x400 (16:9), 25 fps, XviD ~ 1600 kbps avg, 0.222 bit/pixel
    Информация о звуке: 48 kHz, Dolby AC3 5.1, 448 kbps

    Раздача от:
    MediaInfo

    Общее
    Полное имя : Slomannye.cvety.2005.BDRip_New-team_by_AVP_Studio.avi
    Формат : AVI
    Формат/Информация : Audio Video Interleave
    Размер файла : 1,46 Гбайт
    Продолжительность : 1 ч. 41 м.
    Общий поток : 2057 Кбит/сек
    Программа кодирования : VirtualDubModRus 1.5.10.2 (build 2542/release)
    Библиотека кодирования : VirtualDubMod build 2542/release

    Видео
    Идентификатор : 0
    Формат : MPEG-4 Visual
    Профиль формата : Advanced Simple@L5
    Параметр BVOP формата : 1
    Параметр QPel формата : Нет
    Параметр GMC формата : Без точки перехода
    Параметр матрицы формата : Выборочная
    Идентификатор кодека : XVID
    Идентификатор кодека/Подсказка : XviD
    Продолжительность : 1 ч. 41 м.
    Битрейт : 1600 Кбит/сек
    Ширина : 720 пикселей
    Высота : 400 пикселей
    Соотношение сторон : 16:9
    Частота кадров : 25,000 кадров/сек
    Цветовое пространство : YUV
    Субдискретизация насыщенности : 4:2:0
    Битовая глубина : 8 бит
    Тип развёртки : Прогрессивная
    Метод сжатия : С потерями
    Бит/(Пиксели*Кадры) : 0.222
    Размер потока : 1,13 Гбайт (78%)
    Библиотека кодирования : XviD 73

    Аудио
    Идентификатор : 1
    Формат : AC-3
    Формат/Информация : Audio Coding 3
    Расширение режима : CM (complete main)
    Идентификатор кодека : 2000
    Продолжительность : 1 ч. 41 м.
    Вид битрейта : Постоянный
    Битрейт : 448 Кбит/сек
    Каналы : 6 каналов
    Расположение каналов : Front: L C R, Side: L R, LFE
    Частота : 48,0 КГц
    Битовая глубина : 16 бит
    Метод сжатия : С потерями
    Размер потока : 325 Мбайт (22%)
    Выравнивание : Разделение по промежуткам
    Продолжительность промежутка : 40 мс. (1,00 видеокадр)
    Время предзагрузки промежутка : 500 мс

    Скриншоты для ознакомления



    Интересные факты

    Изначально проект Джима Джармуша назывался Мёртвые цветы (Dead Flowers).
    На сценарий фильма у Джима Джармуша ушло две с половиной недели.
    Роль Дона Джонстона Джим Джармуш написал специально для Билла Мюррея, поклонником которого он является. Предварительно он рассчитывал задействовать Билла в другом фильме, но изменил свои планы.
    Джазовая композиция Yedermo Sew, непрерывно сопровождающая Дона Джонстона во время его одиссеи, представляет собой минорную версию композиции Song For My Father Хораса Сильвера.
    В конце фильма мимо Дона проезжает автомобиль, из которого его внимательно рассматривает молодой парень. Парня играет сын Билла Мюррея Гомер.

    Залил: AVPStudio
    Размер скачиваемого торрента: 1.46 GB (1564448768 Bytes)

    Сломанные цветы / Broken Flowers (2005) ВDRip от New-Team скачать через торрент бесплатно
    загрузка...
    Рейтинг →
     (голосов: 1, оценка 4/5, голосовать можно 1 раз )

    Другие торренты по теме:

  • Сломанные цветы / Broken Flowers (2005) ВDRip-AVC от New-Team
  • Сломанные цветы / Broken Flowers (2005) ВDRip 720p от New-Team | P2 | P скачать через торрент бесплатно
  • Сломанные цветы / Broken Flowers (2005) HDRip от Scarabey | P


    • Комментарии (0):

      Информация

      Информация

        Посетители, находящиеся в группе Гости, не могут оставлять комментарии в данной новости.

        ↓ Меню



        ↓ Опрос

        А Вы добавили сайт в закладки?
        Да
        Не


        Top 10 за месяц (Фильмы)