.
Авторизация | Регистрация
Хочешь лучшие торренты? Добавь свой email!
Добавить




Романовы (2013) HDTV 1080p скачать торрент бесплатно

Опубликовал: Админ | Дата: 27-02-2015, 11:09 | Просмотров: 653



Детально о кино
Русское название: Романовы.(Фёдор Алексеевич, Софья Алексеевна)
Русское название в мировом прокате: Романовы
Создали в: 2013
Категория жанра: докудрама
Главный режиссер: Максим Беспалый
Актеры: Константин Шелягин, Александр Горелов, Александра Платонова, Ирина Жерякова, Дмитрий Антимонов, Денис Беспалый, Александр Ковалев, Кристина Екатеринчева, Артур Иванов

Сюжет фильма:
Уникальный по форме проект, приуроченным к 400-летию воцарения на Руси дома Романовых, который сочетает в себе элементы и игрового, и документального кино, информационной графики и анимации. История расскажет о том, что представляло собой русское самодержавие как система управления, каковы ее недостатки и преимущества, какую роль монархи дома Романовых играли в событиях российской и мировой истории. При помощи графики создается максимально исторически-достоверная картина, которая погружает зрителя в атмосферу и ощущение времени и позволяет увидеть царя глазами современников.

Доп.информация: запись со спутника с 1HD канала(пакет Триколор ТВ).
В раздаче 2 фильм (Фёдор Алексеевич, Софья Алексеевна)

Снималось в: Россия
Киностудия: STAR MEDIA
Время просмотра: 00:52:26

Файл
Кодек для видео: AVC/H.264
Качество фильма: HDTV 1080p
Информация о видео: 1920x1080 (16:9), 8126 Кбит/сек, 25.000 fps
Информация о звуке: MP2, 2ch, 48,0 КГц, 192 Кбит/сек
Язык: Русский

Семпл

MediaInfo

Видео
Идентификатор : 4096 (0x1000)
Идентификатор меню : 1 (0x1)
Формат : AVC
Формат/Информация : Advanced Video Codec
Профиль формата : High@L4.1
Параметр CABAC формата : Да
Параметр ReFrames формата : 3 кадра
Идентификатор кодека : 27
Продолжительность : 52 м.
Вид битрейта : Постоянный
Битрейт : 8126 Кбит/сек
Ширина : 1920 пикселей
Высота : 1080 пикселей
Соотношение сторон : 16:9
Частота кадров : 25,000 кадров/сек
Стандарт вещания : PAL
Цветовое пространство : YUV
Субдискретизация насыщенности : 4:2:0
Битовая глубина : 8 бит
Тип развёртки : Прогрессивная
Бит/(Пиксели*Кадры) : 0.157
Размер потока : 2,93 Гбайт (93%)
Основные цвета : BT.709
Характеристики трансфера : BT.709
Коэффициенты матрицы : BT.709

Аудио
Идентификатор : 4097 (0x1001)
Идентификатор меню : 1 (0x1)
Формат : MPEG Audio
Версия формата : Version 1
Профиль формата : Layer 2
Идентификатор кодека : 3
Продолжительность : 52 м.
Вид битрейта : Постоянный
Битрейт : 192 Кбит/сек
Каналы : 2 канала
Частота : 48,0 КГц
Метод сжатия : С потерями
Задержка видео : 16 мс.
Размер потока : 72,0 Мбайт (2%)
Язык : Russian

Скриншоты для ознакомления



Релиз подготовил: Rmk80disco
Залил: Rmk80disco
Размер скачиваемого торрента: 3.15 GB (3384360208 Bytes)

Романовы (2013) HDTV 1080p торрент скачать бесплатно
загрузка...
Рейтинг →
 (голосов: 1, оценка 5/5, голосовать можно 1 раз )

Другие торренты по теме:

  • Платонъ Васенко - Бояре Романовы и воцаренie Михаила Федоровича (1913) PDF
  • Анета Борковская, Стефан Цяра, Гжегож Ясиньский, Яцек Коник - Романовы (2012) PDF
  • Романовы. Собственный Его Императорского Величества Конвой (2010) DVDRip-AVC от Тorrent-Хzona
  • Тайны истории. Романовы / Mystery Files. The Romanovs (2009) HDTVRip-AVC от Тorrent-Хzona
  • Романовы (2013) WEB-DL (1080p) от Nikolspup скачать через торрент бесплатно
  • Романовы (2013) WEB-DL 720p скачать через торрент бесплатно
  • Романовы (2013) WEB-DLRip скачать через торрент бесплатно
  • Романовы (2013) HDTV 1080i


    • Комментарии (0):

      Информация

      Информация

        Посетители, находящиеся в группе Гости, не могут оставлять комментарии в данной новости.

        ↓ Меню



        ↓ Опрос

        А Вы добавили сайт в закладки?
        Да
        Не


        Top 10 за месяц (Фильмы)