.
Авторизация | Регистрация
Хочешь лучшие торренты? Добавь свой email!
Добавить
» » Подарок / Le cadeau / The gift (1982) DVDRip | P скачать торрент бесплатно




    Подарок / Le cadeau / The gift (1982) DVDRip | P скачать торрент бесплатно

    Опубликовал: Админ | Дата: 27-02-2015, 11:09 | Просмотров: 466



    Детально о кино
    Русское название: Подарок
    Русское название в мировом прокате: Le cadeau / The gift
    Создали в: 1982
    Категория жанра: комедия
    Главный режиссер: Мишель Ланг / Michel Lang
    Актеры: Пьер Монди, Клаудия Кардинале, Клио Голдсмит, Жак Франсуа, Ренцо Монтаньяни, Сесиль Манье, Анри Гибе, Реми Лоран, Иоланда Жило

    Сюжет фильма:
    Банковский служащий Грегуар Дюфур выходит на пенсию и едет на отдых в Италию, так и не получив от сослуживцев обещанный ими подарок. Его попутчицей, как будто случайно, становится авантюристка Жозефина, которая представляется Барбарой. Сын Дюфуа — Лоран морочит своим девчонкам мозги, выдавая отца за крутого банкира, и когда настоящий банкир — Бывший начальник Дюфуа — видит перед собой одну из несчастных, то догадывается, что она пришла жаловаться не на его сына. Настоящий банкир, влюбившись в нее, увозит девчонку в Венецию, где все герои и встретятся в шикарном отеле.



    Снималось в: Франция, Италия
    Время просмотра: 01:42:28
    Перевод текста: Профессиональный (двухголосый закадровый) Ольга Кузнецова и Александр Белявский / Профессиональный (двухголосый закадровый) Наталья Казначеева и Александр Новиков

    Файл
    Кодек для видео: DivX / MP3
    Качество фильма: DVDRip
    Информация о видео: DivX 5, 704x400 (16:9), 25.000 fps, 1 536 Kbps (0.218 bit/pixel)
    Информация о звуке:
    Audio 1: MP3, 2 ch, 160 Кбит/сек - русский (Ольга Кузнецова и Александр Белявский)
    Audio 2: MP3, 2 ch, 128 Кбит/сек - русский (Наталья Казначеева и Александр Новиков)
    Audio 2: MP3, 2 ch, 192 Кбит/сек - французский оригинальный

    Скриншоты для ознакомления
    MediaInfo
    General
    Complete name : /torrent/Подарок (1981) DVDRip.avi
    Format : AVI
    Format/Info : Audio Video Interleave
    File size : 1.46 GiB
    Duration : 1h 42mn
    Overall bit rate : 2 035 Kbps
    Writing application : VirtualDubMod 1.6.0.0 SURROUND (build 2560/release)
    Writing library : VirtualDubMod build 2560/release

    Video
    ID : 0
    Format : MPEG-4 Visual
    Format settings, BVOP : 1
    Format settings, QPel : No
    Format settings, GMC : No warppoints
    Format settings, Matrix : Default (H.263)
    Muxing mode : Packed bitstream
    Codec ID : DX50
    Codec ID/Hint : DivX 5
    Duration : 1h 42mn
    Bit rate : 1 536 Kbps
    Width : 704 pixels
    Height : 400 pixels
    Display aspect ratio : 16:9
    Original display aspect ratio : 16:9
    Frame rate : 25.000 fps
    Color space : YUV
    Chroma subsampling : 4:2:0
    Bit depth : 8 bits
    Scan type : Progressive
    Compression mode : Lossy
    Bits/(Pixel*Frame) : 0.218
    Stream size : 1.10 GiB (75%)
    Writing library : DivX 6.8.5 (UTC 2009-08-20)

    Audio #1
    ID : 1
    Format : MPEG Audio
    Format version : Version 1
    Format profile : Layer 3
    Mode : Joint stereo
    Mode extension : MS Stereo
    Codec ID : 55
    Codec ID/Hint : MP3
    Duration : 1h 42mn
    Bit rate mode : Constant
    Bit rate : 160 Kbps
    Channel(s) : 2 channels
    Sampling rate : 44.1 KHz
    Compression mode : Lossy
    Delay relative to video : 526ms
    Stream size : 117 MiB (8%)
    Alignment : Split accross interleaves
    Interleave, duration : 40 ms (1.00 video frame)
    Interleave, preload duration : 500 ms

    Audio #2
    ID : 2
    Format : MPEG Audio
    Format version : Version 1
    Format profile : Layer 3
    Mode : Joint stereo
    Mode extension : MS Stereo
    Codec ID : 55
    Codec ID/Hint : MP3
    Duration : 1h 42mn
    Bit rate mode : Constant
    Bit rate : 128 Kbps
    Channel(s) : 2 channels
    Sampling rate : 44.1 KHz
    Compression mode : Lossy
    Delay relative to video : 300ms
    Stream size : 93.7 MiB (6%)
    Alignment : Split accross interleaves
    Interleave, duration : 40 ms (1.00 video frame)
    Interleave, preload duration : 500 ms

    Audio #3
    ID : 3
    Format : MPEG Audio
    Format version : Version 1
    Format profile : Layer 3
    Mode : Joint stereo
    Mode extension : MS Stereo
    Codec ID : 55
    Codec ID/Hint : MP3
    Duration : 1h 42mn
    Bit rate mode : Constant
    Bit rate : 192 Kbps
    Channel(s) : 2 channels
    Sampling rate : 48.0 KHz
    Compression mode : Lossy
    Delay relative to video : 8ms
    Stream size : 141 MiB (9%)
    Alignment : Split accross interleaves
    Interleave, duration : 40 ms (1.00 video frame)
    Interleave, preload duration : 500 ms

    Размер скачиваемого торрента: 1.46 GB (1563887616 Bytes)

    Подарок / Le cadeau / The gift (1982) DVDRip | P торрент скачать бесплатно
    загрузка...
    Рейтинг →
     (голосов: 1, оценка 5/5, голосовать можно 1 раз )

    Другие торренты по теме:

  • Сборник - Подарок под елочку. Детские песни (2012) MP3
  • VA - Музыкальный подарок Русского радио. Зима (2013) MP3
  • Подарок доброй ведьмы / The Good Witchs Gift (2010) HDTVRip от Torrent-Xzona | КПК | P
  • Драконы: Подарок Ночной Фурии / Dragons: Gift of the Night Fury (2011) BDRip 720p | Невафильм
  • Сборник - Любимой женщине подарок (2013) MP3
  • Сборник шансона - Любимой Женщине в Подарок! (2013) MP3
  • Обратный отсчёт - LEBENSBORN. Подарок для фюрера (2013) DVBRip by Sergey911
  • Хор Московского Сретенского монастыря - Любимые песни. Подарок для друзей (2006) MP3


    • Комментарии (0):

      Информация

      Информация

        Посетители, находящиеся в группе Гости, не могут оставлять комментарии в данной новости.

        ↓ Меню



        ↓ Опрос

        А Вы добавили сайт в закладки?
        Да
        Не


        Top 10 за месяц (Фильмы)