.
Авторизация | Регистрация
Хочешь лучшие торренты? Добавь свой email!
Добавить
» » Все леди делают это / Cos fan tutte (1992) BDRip by msltel | P2 скачать через торрент бесплатно




    Все леди делают это / Cos fan tutte (1992) BDRip by msltel | P2 скачать через торрент бесплатно

    Опубликовал: Админ | Дата: 27-02-2015, 11:09 | Просмотров: 470



    Русское название: Все леди делают это
    Русское название в мировом прокате: Cos? fan tutte (All Ladies Do It)
    Создали в: 1992
    Категория жанра: Эротика, драма, комедия
    Снималось в: Италия, San Francisco Film
    Главный режиссер: Тинто Брасс
    Актеры: Клаудия Колль, Паоло Ланца, Орнелла Маркуччи, Изабелла Деяна, Франко Бранчароли, Ренцо Ринальди, Маурицио Мартиноли, Жан Рене Лемуан, Марко Марчани, Россана Ди Пьерро

    Сюжет фильма: Диана счастлива в браке с Полом, но постоянно ищет наслаждений на празднике плоти`, нисколько не испытывая чувства вины перед мужем. Она и не собирается держать свои амурные похождения в тайне от него, считающего её рассказы о сексуальных приключениях плодом воображения. Эти фантазии возбуждают Пола и стимулируют супружеские любовные игры. И лишь когда Диана возвращается из короткой поездки в Венецию с отметинами от зубов на теле, в Поле начинает пробуждаться ревность… Он уходит из дома, не обращая внимания на многочисленные попытки Дианы помириться. Но затем Пол приходит к выводу, что постоянство в сексуальной жизни — вещь неестественная, а строгие моральные принципы не стоят того, чтобы портить из-за них жизнь и лишать себя радостей любви…

    Качество фильма: BDRip
    Информация о видео: XviD, 1900 Кбит/с, 720x400
    Информация о звуке: Русский, итальянский (АС3, 2 ch, 192 Кбит/с)
    Размер скачиваемого торрента: 1.55 ГБ
    Время просмотра: 01:36:37
    Перевод текста: Профессиональный двухголосый
    Субтитры: Английские (для слабослышащих)

    Исходник | Сравнение с исходником



    Из отзывов...
    krabsburger

    Терпеть не могу эротику. По мне, так лучше порнография.
    Но этот фильм… Это как красивая сказка для взрослых. Для меня он, прежде всего, ассоциируется с буйством красок, красотой и привлекательностью форм и, конечно же, с юмором.
    Главная героиня Диана — раскованная женщина, без комплексом и с чувством собственного достоинства. Она настолько привлекательна, что все мужчины в фильмы не могут её не хотеть. Но у неё есть муж, которого она любит, и который не даёт ей полёта для сексуальной фантазии. А Диане-то хочется намного большего, чем супружеские ласки. Именно поэтому она ищет приключений на стороне, не находя в этом ничего предосудительного. Муж, как и следовало предполагать, против, такое поведение жены не соответствует его моральным принципам. Но постепенно он начинает понимать, что в полигамии нет ничего плохого, ведь она вносит некую пикантность в отношения супругов.
    Повторюсь, фильм очень красочен, в нём полно задора. Поклон Тинто Брассу за режиссуру. Так живописно и не пошло(!) показать все прелести женского тела сможет не каждый режиссёр.
    Обязательно пересмотрю фильм. И не один раз.

    8 из 10

    Кинопоиск
    MediaInfo
    Общее
    Полное имя : E:VideoVse.ledi.delajut.eto.1992.XviD.BDRipVse.ledi.delajut.eto.1992.eng.SDH.srt
    Размер файла : 173 Кбайт

    Общее
    Полное имя : E:VideoVse.ledi.delajut.eto.1992.XviD.BDRipVse.ledi.delajut.eto.1992.Original.ita.ac3
    Формат : AC-3
    Формат/Информация : Audio Coding 3
    Размер файла : 133 Мбайт
    Продолжительность : 1 ч. 36 м.
    Режим общего битрейта : Постоянный
    Общий поток : 192 Кбит/сек

    Аудио
    Формат : AC-3
    Формат/Информация : Audio Coding 3
    Расширение режима : CM (complete main)
    Параметр Endianness формата : Big
    Продолжительность : 1 ч. 36 м.
    Вид битрейта : Постоянный
    Битрейт : 192 Кбит/сек
    Каналы : 2 канала
    Расположение каналов : Front: L R
    Частота : 48,0 КГц
    Битовая глубина : 16 бит
    Метод сжатия : С потерями
    Размер потока : 133 Мбайт (100%)

    Общее
    Полное имя : E:VideoVse.ledi.delajut.eto.1992.XviD.BDRipVse.ledi.delajut.eto.1992.XviD.BDRip.avi
    Формат : AVI
    Формат/Информация : Audio Video Interleave
    Размер файла : 1,42 Гбайт
    Продолжительность : 1 ч. 36 м.
    Общий поток : 2102 Кбит/сек
    Программа кодирования : VirtualDubMod 1.5.10.2 (build 2540/release)
    Библиотека кодирования : VirtualDubMod build 2540/release

    Видео
    Идентификатор : 0
    Формат : MPEG-4 Visual
    Профиль формата : Advanced Simple@L5
    Параметр BVOP формата : 1
    Параметр QPel формата : Нет
    Параметр GMC формата : Без точки перехода
    Параметр матрицы формата : Default (H.263)
    Режим смешивания : Сжатый битовый поток
    Идентификатор кодека : XVID
    Идентификатор кодека/Подсказка : XviD
    Продолжительность : 1 ч. 36 м.
    Битрейт : 1900 Кбит/сек
    Ширина : 720 пикселей
    Высота : 400 пикселей
    Соотношение сторон : 16:9
    Частота кадров : 23,976 кадра/сек
    Цветовое пространство : YUV
    Субдискретизация насыщенности : 4:2:0
    Битовая глубина : 8 бит
    Тип развёртки : Прогрессивная
    Метод сжатия : С потерями
    Бит/(Пиксели*Кадры) : 0.275
    Размер потока : 1,28 Гбайт (90%)
    Библиотека кодирования : XviD 1.2.1 (UTC 2008-12-04)

    Аудио
    Идентификатор : 1
    Формат : AC-3
    Формат/Информация : Audio Coding 3
    Расширение режима : CM (complete main)
    Параметр Endianness формата : Big
    Идентификатор кодека : 2000
    Продолжительность : 1 ч. 36 м.
    Вид битрейта : Постоянный
    Битрейт : 192 Кбит/сек
    Каналы : 2 канала
    Расположение каналов : Front: L R
    Частота : 48,0 КГц
    Битовая глубина : 16 бит
    Метод сжатия : С потерями
    Размер потока : 133 Мбайт (9%)
    Выравнивание : Разделение по промежуткам
    Продолжительность промежутка : 42 мс. (1,00 видеокадр)
    Время предзагрузки промежутка : 500 мс.
    Скриншоты для ознакомления




    Залил: msltel
    Размер скачиваемого торрента: 1.55 GB (1662324416 Bytes)

    Все леди делают это / Cos fan tutte (1992) BDRip by msltel | P2 скачать через торрент бесплатно
    загрузка...
    Рейтинг →
     (голосов: 1, оценка 4/5, голосовать можно 1 раз )

    Другие торренты по теме:

  • Все леди делают это / All Ladies Do It (1992) Blu-Ray 1080p | P2
  • Все леди делают это / Cos fan tutte (1992) BDRip 720p by msltel | P2 скачать через торрент бесплатно
  • Все леди делают это / Cosi fan tutte (1992) BDRemux 1080p от ExKinoRay | P2
  • Все леди делают это / Cosi fan tutte (1992) BDRip-AVC от ExKinoRay | P2
  • Все леди делают это / Cos fan tutte (1992) BDRip 1080p by msltel | P2
  • Все леди делают это / Cos fan tutte (All Ladies Do It) (1992) DVDRip от MediaClub | КПК


    • Комментарии (0):

      Информация

      Информация

        Посетители, находящиеся в группе Гости, не могут оставлять комментарии в данной новости.

        ↓ Меню



        ↓ Опрос

        А Вы добавили сайт в закладки?
        Да
        Не


        Top 10 за месяц (Фильмы)