.
Авторизация | Регистрация
Хочешь лучшие торренты? Добавь свой email!
Добавить
» » Адское дитя / Hell Baby (2013) WEB-DLRip-AVC | L1 скачать через торрент бесплатно




    Адское дитя / Hell Baby (2013) WEB-DLRip-AVC | L1 скачать через торрент бесплатно

    Опубликовал: Админ | Дата: 27-02-2015, 11:09 | Просмотров: 283



    Детально о кино
    Русское название: Адское дитя
    Русское название в мировом прокате: Hell Baby
    Создали в: 2013
    Категория жанра: ужасы, комедия
    Главный режиссер: Роберт Бен Гарант, Томас Леннон
    Актеры: Роб Кордри, Лесли Бибб, Кигэн Майкл Ки, Рики Линдхоум, Роб Хюбел, Пол Шеер, Роберт Бен Гарант, Томас Леннон, Майкл Йен Блэк, Кумэйл Нанджиани

    Сюжет фильма: Молодая пара, со дня на день ждущая появления на свет своего первенца, въезжает в, мягко выражаясь, не самый новый и не самый крепкий в Новом Орлеане дом. Переезд ознаменовывается тем, что вскоре будущие родители уже вызывают к себе элитных ватиканских экзорцистов, надеясь, что они спасут их от младенца-демона.



    Снималось в: США
    Время просмотра: 01:34:00
    Тип перевода: Любительское (одноголосое) den904, перевод Антон Кедров

    Файл
    Тип видео: MKV
    Качество фильма: WEB-DLRip-AVC
    Информация о видео: 2014 kb/s, 1024x576
    Информация о звуке: AC3, 192 kb/s (2 ch)





    MI

    Format : Matroska
    Format version : Version 4 / Version 2
    File size : 1.45 GiB
    Duration : 1h 34mn
    Overall bit rate : 2 203 Kbps
    Encoded date : UTC 2013-11-12 16:43:59
    Writing application : mkvmerge v6.1.0 (;Old Devil;) built on Mar 4 2013 09:10:42
    Writing library : libebml v1.3.0 libmatroska v1.4.0

    Video
    ID : 1
    Format : AVC
    Format/Info : Advanced Video Codec
    Format profile : High@L4.1
    Format settings, CABAC : Yes
    Format settings, ReFrames : 10 frames
    Codec ID : V_MPEG4/ISO/AVC
    Duration : 1h 34mn
    Bit rate : 2 014 Kbps
    Width : 1 024 pixels
    Height : 576 pixels
    Display aspect ratio : 16:9
    Frame rate : 23.976 fps
    Color space : YUV
    Chroma subsampling : 4:2:0
    Bit depth : 8 bits
    Scan type : Progressive
    Bits/(Pixel*Frame) : 0.142
    Stream size : 1.29 GiB (89%)
    Title : Rip by 03nazar03
    Writing library : x264 core 130 r2273 b3065e6
    Encoding settings : cabac=1 / ref=10 / deblock=1:-3:-3 / analyse=0x3:0x133 / me=umh / subme=10 / psy=1 / psy_rd=1.00:0.20 / mixed_ref=1 / me_range=32 / chroma_me=1 / trellis=2 / 8x8dct=1 / cqm=0 / deadzone=21,11 / fast_pskip=0 / chroma_qp_offset=-3 / threads=6 / lookahead_threads=1 / sliced_threads=0 / nr=0 / decimate=0 / interlaced=0 / bluray_compat=0 / constrained_intra=0 / bframes=8 / b_pyramid=2 / b_adapt=2 / b_bias=0 / direct=3 / weightb=1 / open_gop=0 / weightp=2 / keyint=250 / keyint_min=23 / scenecut=40 / intra_refresh=0 / rc=2pass / mbtree=0 / bitrate=2014 / ratetol=1.0 / qcomp=0.60 / qpmin=0 / qpmax=69 / qpstep=4 / cplxblur=20.0 / qblur=0.5 / ip_ratio=1.40 / pb_ratio=1.30 / aq=1:1.00
    Language : English
    Default : Yes
    Forced : No

    Audio
    ID : 2
    Format : AC-3
    Format/Info : Audio Coding 3
    Mode extension : CM (complete main)
    Format settings, Endianness : Big
    Codec ID : A_AC3
    Duration : 1h 34mn
    Bit rate mode : Constant
    Bit rate : 192 Kbps
    Channel(s) : 2 channels
    Channel positions : Front: L R
    Sampling rate : 48.0 KHz
    Bit depth : 16 bits
    Compression mode : Lossy
    Stream size : 129 MiB (9%)
    Title : den904
    Language : Russian
    Default : Yes
    Forced : No
    Скриншоты для ознакомления


    Рип: 03nazar03
    Размер скачиваемого торрента: 1.45 GB (1553283246 Bytes)

    Адское дитя / Hell Baby (2013) WEB-DLRip-AVC | L1 скачать через торрент бесплатно
    загрузка...
    Рейтинг →
     (голосов: 1, оценка 5/5, голосовать можно 1 раз )

    Другие торренты по теме:

  • Адское дитя / Hell Baby (2013) WEB-DL 720p | L1
  • Адское дитя / Hell Baby (2013) WEB-DLRip | L1
  • Адское дитя / Hell Baby (2013) BDRip 720p от CINEMANIA | L1 скачать через торрент бесплатно
  • Адское дитя / Hell Baby (2013) BDRip 1080p от CINEMANIA | L1 скачать через торрент бесплатно


    • Комментарии (0):

      Информация

      Информация

        Посетители, находящиеся в группе Гости, не могут оставлять комментарии в данной новости.

        ↓ Меню



        ↓ Опрос

        А Вы добавили сайт в закладки?
        Да
        Не


        Top 10 за месяц (Фильмы)