.
Авторизация | Регистрация
Хочешь лучшие торренты? Добавь свой email!
Добавить
» » Фобия / Phobia (2013) WEB-DLRip от BitTracker скачать торрент бесплатно




    Фобия / Phobia (2013) WEB-DLRip от BitTracker скачать торрент бесплатно

    Опубликовал: Админ | Дата: 27-02-2015, 11:09 | Просмотров: 424



    Детально о кино
    Русское название: Фобия
    Русское название в мировом прокате: Phobia
    Создали в: 2013
    Категория жанра: триллер, ужасы
    Главный режиссер: Джон Кейес / Jon Keeyes
    Актеры: Эрика Лирсен, Чейз Райан Джеффри, Мэттью Томпкинс, Джонатан Брукс, Мэтт Мур, Стефани Родс, Кэролин Уикуайр, Тиффани Лонсдэйл, Трей Валпоул

    Сюжет фильма:
    Героиня этого фильма – известный психотерапевт, специализирующаяся на лечении пациентов, страдающих различными фобиями. Однажды к ней на лечение поступает человек, твёрдо убежденный в своей вампирской сущности. Все попытки помочь ему справиться с этой психической болезнью ни к чему не приводят, к тому же, общаясь с пациентом, героиня начинает понимать, что тот замешан в какой-то таинственной истории, связанной с убийством...




    Снималось в: США
    Время просмотра: 01:30:40
    Перевод текста: Любительское (двухголосое) DeadSno den904

    Файл
    Кодек для видео: XviD
    Качество фильма: WEB-DLRip (Исх. WEB-DL 1080p)
    Информация о видео: 656x368 (1.78:1), 23.976 fps, XviD build 50 ~1011 kbps avg, 0.17 bit/pixel
    Информация о звуке: 48 kHz, MPEG Layer 3, 2 ch, ~128.00 kbps avg
    Субтитры: нет

    Семпл

    MediaInfo

    Общее
    Полное имя : S:ФильмыФобия. 2013. WEB-DLRip. 745 (AleksSin).avi
    Формат : AVI
    Формат/Информация : Audio Video Interleave
    Размер файла : 745 Мбайт
    Продолжительность : 1 ч. 30 м.
    Общий поток : 1148 Кбит/сек
    Программа кодирования : VirtualDubMod 1.5.10.3 | www.virtualdub-fr.org || (build 2550/release)
    Библиотека кодирования : VirtualDubMod build 2550/release

    Видео
    Идентификатор : 0
    Формат : MPEG-4 Visual
    Профиль формата : Advanced Simple@L5
    Параметр BVOP формата : 2
    Параметр QPel формата : Нет
    Параметр GMC формата : Без точки перехода
    Параметр матрицы формата : Default (H.263)
    Идентификатор кодека : XVID
    Идентификатор кодека/Подсказка : XviD
    Продолжительность : 1 ч. 30 м.
    Битрейт : 1011 Кбит/сек
    Ширина : 656 пикс.
    Высота : 368 пикс.
    Соотношение сторон : 16:9
    Частота кадров : 23,976 кадр/сек
    Цветовое пространство : YUV
    Подвыборка цветности : 4:2:0
    Битовая глубина : 8 бит
    Тип развёртки : Прогрессивная
    Метод сжатия : С потерями
    Бит/(Пиксели*Кадры) : 0.175
    Размер потока : 656 Мбайт (88%)
    Библиотека кодирования : XviD 1.2.1 (UTC 2008-12-04)

    Аудио
    Идентификатор : 1
    Формат : MPEG Audio
    Версия формата : Version 1
    Профиль формата : Layer 3
    Идентификатор кодека : 55
    Идентификатор кодека/Подсказка : MP3
    Продолжительность : 1 ч. 30 м.
    Вид битрейта : Постоянный
    Битрейт : 128 Кбит/сек
    Каналы : 2 канала
    Частота : 48,0 КГц
    Метод сжатия : С потерями
    Размер потока : 83,0 Мбайт (11%)
    Выравнивание : Соединение по промежуткам
    Продолжительность промежутка : 42 мс. (1,00 видеокадр)
    Время предзагрузки промежутка : 504 ms
    Библиотека кодирования : LAME3.99r
    Залил: AleksSin
    Размер скачиваемого торрента: 744.61 MB (780783616 Bytes)


    Фобия / Phobia (2013) WEB-DLRip от BitTracker торрент скачать бесплатно
    загрузка...
    Рейтинг →
     (голосов: 1, оценка 3/5, голосовать можно 1 раз )

    Другие торренты по теме:

  • Фобия / Phobia (2013) WEB-DL 720p от CINEMANIA | L2
  • Фобия / Phobia (2013) WEB-DLRip от CINEMANIA | L2


    • Комментарии (0):

      Информация

      Информация

        Посетители, находящиеся в группе Гости, не могут оставлять комментарии в данной новости.

        ↓ Меню



        ↓ Опрос

        А Вы добавили сайт в закладки?
        Да
        Не


        Top 10 за месяц (Фильмы)