.
Авторизация | Регистрация
Хочешь лучшие торренты? Добавь свой email!
Добавить
» » Вулкан / Volcano (1997) BDRip-AVC от MediaClub | D, P, A скачать торрент бесплатно




    Вулкан / Volcano (1997) BDRip-AVC от MediaClub | D, P, A скачать торрент бесплатно

    Опубликовал: Админ | Дата: 27-02-2015, 11:09 | Просмотров: 319



    Детально о кино
    Русское название: Вулкан
    Русское название в мировом прокате: Volcano
    Создали в: 1997
    Категория жанра: Боевик, фильм-катастрофа, драма, триллер
    Главный режиссер: Мик Джексон
    Актеры: Томми Ли Джонс, Энн Хеч, Гэби Хоффманн, Дон Чидл, Жаклин Ким, Кит Дэвид, Джон Корбетт, Майкл Рисполи, Джон Кэрролл Линч, Марсело Тедфорд

    Сюжет фильма:
    Лос — Анджелес на своем веку достаточно повидал стихийных бедствий: землетрясений, пожаров, наводнений. Но сейчас городу ангелов предстоит столкнуться с самой страшной из когда — либо переживаемых им катастроф, которая грозит стереть его с лица земли.В одном из самых населенных районов Лос — Анджелеса внезапно пришел в активное действие вулкан. Раскаленная, грозящая смертью лава уже начала выплескиваться на улицы, запруженные автомобилями…Но, как всегда, герой появляется вовремя — на этот раз в облике мужественного офицера службы спасения в случае стихийных бедствий, который возглавляет борьбу со стихией…



    Снималось в: США / 20th Century Fox
    Время просмотра: 01:43:51
    Перевод текста: Дублированный, профессиональный многоголосый, авторский

    Файл
    Кодек для видео: x264
    Качество фильма: BDRip (AVC)
    Информация о видео: MPEG-4 AVC, 3000 Кбит/с, 1024x576, 23.976 кадр/с
    Информация о звуке #1: Русский (AC3, 2 ch, 192 Кбит/с) / Дублированный
    Информация о звуке #2: Русский (AC3, 6 ch, 448 Кбит/с) / Профессиональный многоголосый
    Информация о звуке #3: Русский (AC3, 6 ch, 448 Кбит/с) / Авторский одноголосый (Ю. Живов)
    Информация о звуке #4: Английский (AC3, 6 ch, 448 Кбит/с)
    Субтитры: Русские, английские

    Семпл

    О релизе
    • За исходник СПАСИБО kaspr

    • Сохраненны оригинальные чаптеры как на Blu-Ray

    --------------------------------------------------------------------------------------
    x264 info: frame I:1227 Avg QP:15.44 size: 83061
    x264 info: frame P:48277 Avg QP:17.99 size: 26937
    x264 info: frame B:99896 Avg QP:20.79 size: 9354
    --------------------------------------------------------------------------------------

    MI
    Format : Matroska
    Format version : Version 4 / Version 2
    File size : 3.29 GiB
    Duration : 1h 43mn
    Overall bit rate : 4 538 Kbps
    Movie name : -=MediaClub - Odessit=-
    Encoded date : UTC 2013-11-11 09:20:45
    Writing application : mkvmerge v6.2.0 (;Promised Land;) built on Apr 28 2013 12:22:01
    Writing library : libebml v1.3.0 libmatroska v1.4.0

    Video
    ID : 1
    Format : AVC
    Format/Info : Advanced Video Codec
    Format profile : High@L4.1
    Format settings, CABAC : Yes
    Format settings, ReFrames : 10 frames
    Codec ID : V_MPEG4/ISO/AVC
    Duration : 1h 43mn
    Bit rate : 3 000 Kbps
    Width : 1 024 pixels
    Height : 576 pixels
    Display aspect ratio : 16:9
    Frame rate : 23.976 fps
    Color space : YUV
    Chroma subsampling : 4:2:0
    Bit depth : 8 bits
    Scan type : Progressive
    Bits/(Pixel*Frame) : 0.212
    Stream size : 2.11 GiB (64%)
    Writing library : x264 core 130 r2273 b3065e6
    Encoding settings : cabac=1 / ref=10 / deblock=1:-3:-3 / analyse=0x3:0x133 / me=umh / subme=11 / psy=1 / psy_rd=1.00:0.20 / mixed_ref=1 / me_range=48 / chroma_me=1 / trellis=2 / 8x8dct=1 / cqm=0 / deadzone=21,11 / fast_pskip=0 / chroma_qp_offset=-3 / threads=6 / lookahead_threads=1 / sliced_threads=0 / nr=0 / decimate=0 / interlaced=0 / bluray_compat=0 / constrained_intra=0 / bframes=9 / b_pyramid=2 / b_adapt=2 / b_bias=0 / direct=3 / weightb=1 / open_gop=0 / weightp=2 / keyint=240 / keyint_min=23 / scenecut=40 / intra_refresh=0 / rc=2pass / mbtree=0 / bitrate=3000 / ratetol=1.0 / qcomp=0.60 / qpmin=0 / qpmax=69 / qpstep=4 / cplxblur=20.0 / qblur=0.5 / ip_ratio=1.40 / pb_ratio=1.30 / aq=1:1.00
    Language : English

    Audio #1
    ID : 2
    Format : AC-3
    Format/Info : Audio Coding 3
    Mode extension : CM (complete main)
    Codec ID : A_AC3
    Duration : 1h 43mn
    Bit rate mode : Constant
    Bit rate : 192 Kbps
    Channel(s) : 2 channels
    Channel positions : Front: L R
    Sampling rate : 48.0 KHz
    Bit depth : 16 bits
    Compression mode : Lossy
    Stream size : 143 MiB (4%)
    Title : Дублированный
    Language : Russian

    Audio #2
    ID : 3
    Format : AC-3
    Format/Info : Audio Coding 3
    Mode extension : CM (complete main)
    Codec ID : A_AC3
    Duration : 1h 43mn
    Bit rate mode : Constant
    Bit rate : 448 Kbps
    Channel(s) : 6 channels
    Channel positions : Front: L C R, Side: L R, LFE
    Sampling rate : 48.0 KHz
    Bit depth : 16 bits
    Compression mode : Lossy
    Stream size : 333 MiB (10%)
    Title : Профессиональный многоголосый
    Language : Russian

    Audio #3
    ID : 4
    Format : AC-3
    Format/Info : Audio Coding 3
    Mode extension : CM (complete main)
    Codec ID : A_AC3
    Duration : 1h 43mn
    Bit rate mode : Constant
    Bit rate : 448 Kbps
    Channel(s) : 6 channels
    Channel positions : Front: L C R, Side: L R, LFE
    Sampling rate : 48.0 KHz
    Bit depth : 16 bits
    Compression mode : Lossy
    Stream size : 333 MiB (10%)
    Title : Авторский одноголосый (Ю. Живов)
    Language : Russian

    Audio #4
    ID : 5
    Format : AC-3
    Format/Info : Audio Coding 3
    Mode extension : CM (complete main)
    Codec ID : A_AC3
    Duration : 1h 43mn
    Bit rate mode : Constant
    Bit rate : 448 Kbps
    Channel(s) : 6 channels
    Channel positions : Front: L C R, Side: L R, LFE
    Sampling rate : 48.0 KHz
    Bit depth : 16 bits
    Compression mode : Lossy
    Stream size : 333 MiB (10%)
    Language : English

    Text #1
    ID : 6
    Format : UTF-8
    Codec ID : S_TEXT/UTF8
    Codec ID/Info : UTF-8 Plain Text
    Language : Russian

    Text #2
    ID : 7
    Format : UTF-8
    Codec ID : S_TEXT/UTF8
    Codec ID/Info : UTF-8 Plain Text
    Language : English

    Menu
    00:00:00.000 : en:Chapter 01
    00:11:41.742 : en:Chapter 02
    00:21:57.357 : en:Chapter 03
    00:30:05.553 : en:Chapter 04
    00:42:56.115 : en:Chapter 05
    00:53:30.749 : en:Chapter 06
    01:02:27.827 : en:Chapter 07
    01:10:18.839 : en:Chapter 08
    01:21:46.818 : en:Chapter 09
    01:33:04.662 : en:Chapter 10

    Скриншоты для ознакомления


    Релиз подготовил: |
    Размер скачиваемого торрента: 3.29 GB (3535411064 Bytes)

    Вулкан / Volcano (1997) BDRip-AVC от MediaClub | D, P, A торрент скачать бесплатно
    загрузка...
    Рейтинг →
     (голосов: 1, оценка 4/5, голосовать можно 1 раз )

    Другие торренты по теме:

  • VA - Вулкан удовольствий зимний. Сборник 50 / 50 (2013) MP3
  • VA - Вулкан удовольствий зимний. Зарубежный выпуск (2013) MP3
  • Сборник - Зимний вулкан удовольствий. Русский выпуск (2013) MP3
  • Вулкан / Volcano (1997) BDRemux 1080p от MediaClub | D, P, A
  • Вулкан / Volcano (1997) BDRip 720p от MediaClub | D, P, A скачать через торрент бесплатно
  • Вулкан / Volcano (1997) BDRip от MediaClub | D, P, A
  • Вулкан / Volcano (1997) BDRip от Rulya74 | D, A
  • Вулкан / Volcano (1997) BDRip 1080p | D, P, A скачать через торрент бесплатно


    • Комментарии (0):

      Информация

      Информация

        Посетители, находящиеся в группе Гости, не могут оставлять комментарии в данной новости.

        ↓ Меню



        ↓ Опрос

        А Вы добавили сайт в закладки?
        Да
        Не


        Top 10 за месяц (Фильмы)