.
Авторизация | Регистрация
Хочешь лучшие торренты? Добавь свой email!
Добавить
» » 3 женщины / 3 Women (1977) BDRip by msltel | P, P2, A скачать торрент бесплатно




    3 женщины / 3 Women (1977) BDRip by msltel | P, P2, A скачать торрент бесплатно

    Опубликовал: Админ | Дата: 27-02-2015, 11:09 | Просмотров: 337



    Русское название: 3 женщины
    Русское название в мировом прокате: 3 Women
    Создали в: 1977
    Категория жанра: Драма
    Снималось в: США
    Главный режиссер: Роберт Олтмен
    Актеры: Шелли Дювалл, Сисси Спейсек, Дженис Рул, Роберт Фортье, Рут Нельсон, Джон Кромуэлл, Сьерра Пешёр, Крэйг Ричард Нельсон, Мэйзи Хой, Белита Морено

    Сюжет фильма: Пинки Роуз, наивная молодая женщина, приезжает в коммуну в Калифорнийской пустыне, но скоро сбегает оттуда вместе с Милли Ламморо, которая тоже родом из Техаса и работала вместе с ней в медицинском учреждении. Милли, осознающая, что в мире есть такое понятие, как мода, живёт в квартирном комплексе для одиноких и проводит вечера в баре для мотоциклистов. Пинки переезжает к Милли и заводит дружбу с Уилли, молчаливой беременной женой Эдгара, которому принадлежит комплекс...

    Качество фильма: BDRip
    Размер скачиваемого торрента: 2.26 ГБ
    Время просмотра: 02:03:51

    Информация о видео: XviD, 1576 Кбит/с, 720x304
    Информация о звуке 1: русский, 48 kHz, AC3, 2 ch, 192 kbps avg, Профессиональный многоголосый, ОРТ
    Информация о звуке 2: русский, 48 kHz, AC3, 2 ch, 192 kbps avg, Профессиональный двухголосый, NLS

    Внешние файлы
    Информация о звуке: русский, 48 kHz, AC3, 1 ch, 192 kbps avg, Авторский, Андрей Гаврилов
    Информация о звуке: английский, 48 kHz, AC3, 1 ch, 448 kbps avg, Оригинал
    Субтитры: русские
    Субтитры: английские (для слабослышащих)

    Исходник: v111o (HDTracker)

    Сравнение с исходником



    Награды
    Британская академия, 1978 год
    Номинации (1):
    Лучшая женская роль (Шелли Дювалл)

    Каннский кинофестиваль, 1977 год
    Победитель (1):
    Серебряная премия за лучшую женскую роль (Шелли Дювалл)

    Номинации (1):
    Золотая пальмовая ветвь
    MediaInfo
    Общее
    Полное имя : E:Video3.genshiny.1977.XviD.BDRip3.genshiny.1977.AVO.rus.А.Гаврилов.ac3
    Формат : AC-3
    Формат/Информация : Audio Coding 3
    Размер файла : 170 Мбайт
    Продолжительность : 2 ч. 3 м.
    Режим общего битрейта : Постоянный
    Общий поток : 192 Кбит/сек

    Аудио
    Формат : AC-3
    Формат/Информация : Audio Coding 3
    Расширение режима : CM (complete main)
    Параметр Endianness формата : Big
    Продолжительность : 2 ч. 3 м.
    Вид битрейта : Постоянный
    Битрейт : 192 Кбит/сек
    Каналы : 1 канал
    Расположение каналов : Front: C
    Частота : 48,0 КГц
    Битовая глубина : 16 бит
    Метод сжатия : С потерями
    Размер потока : 170 Мбайт (100%)

    Общее
    Полное имя : E:Video3.genshiny.1977.XviD.BDRip3.genshiny.1977.eng.SDH.srt
    Размер файла : 209 Кбайт

    Общее
    Полное имя : E:Video3.genshiny.1977.XviD.BDRip3.genshiny.1977.Original.eng.ac3
    Формат : AC-3
    Формат/Информация : Audio Coding 3
    Размер файла : 397 Мбайт
    Продолжительность : 2 ч. 3 м.
    Режим общего битрейта : Постоянный
    Общий поток : 448 Кбит/сек

    Аудио
    Формат : AC-3
    Формат/Информация : Audio Coding 3
    Расширение режима : CM (complete main)
    Параметр Endianness формата : Big
    Продолжительность : 2 ч. 3 м.
    Вид битрейта : Постоянный
    Битрейт : 448 Кбит/сек
    Каналы : 1 канал
    Расположение каналов : Front: C
    Частота : 48,0 КГц
    Битовая глубина : 16 бит
    Метод сжатия : С потерями
    Размер потока : 397 Мбайт (100%)

    Общее
    Полное имя : E:Video3.genshiny.1977.XviD.BDRip3.genshiny.1977.rus.srt
    Размер файла : 155 Кбайт

    Общее
    Полное имя : E:Video3.genshiny.1977.XviD.BDRip3.genshiny.1977.XviD.BDRip.avi
    Формат : AVI
    Формат/Информация : Audio Video Interleave
    Размер файла : 1,71 Гбайт
    Продолжительность : 2 ч. 3 м.
    Общий поток : 1974 Кбит/сек
    Программа кодирования : VirtualDubMod 1.5.10.2 (build 2540/release)
    Библиотека кодирования : VirtualDubMod build 2540/release

    Видео
    Идентификатор : 0
    Формат : MPEG-4 Visual
    Профиль формата : Advanced Simple@L5
    Параметр BVOP формата : 1
    Параметр QPel формата : Нет
    Параметр GMC формата : Без точки перехода
    Параметр матрицы формата : Default (H.263)
    Режим смешивания : Сжатый битовый поток
    Идентификатор кодека : XVID
    Идентификатор кодека/Подсказка : XviD
    Продолжительность : 2 ч. 3 м.
    Битрейт : 1576 Кбит/сек
    Ширина : 720 пикселей
    Высота : 304 пикселя
    Соотношение сторон : 2,35:1
    Частота кадров : 23,976 кадра/сек
    Цветовое пространство : YUV
    Субдискретизация насыщенности : 4:2:0
    Битовая глубина : 8 бит
    Тип развёртки : Прогрессивная
    Метод сжатия : С потерями
    Бит/(Пиксели*Кадры) : 0.300
    Размер потока : 1,36 Гбайт (80%)
    Библиотека кодирования : XviD 1.2.1 (UTC 2008-12-04)

    Аудио #1
    Идентификатор : 1
    Формат : AC-3
    Формат/Информация : Audio Coding 3
    Расширение режима : CM (complete main)
    Параметр Endianness формата : Big
    Идентификатор кодека : 2000
    Продолжительность : 2 ч. 3 м.
    Вид битрейта : Постоянный
    Битрейт : 192 Кбит/сек
    Каналы : 2 канала
    Расположение каналов : Front: L R
    Частота : 48,0 КГц
    Битовая глубина : 16 бит
    Метод сжатия : С потерями
    Размер потока : 170 Мбайт (10%)
    Выравнивание : Разделение по промежуткам
    Продолжительность промежутка : 42 мс. (1,00 видеокадр)
    Время предзагрузки промежутка : 500 мс.

    Аудио #2
    Идентификатор : 2
    Формат : AC-3
    Формат/Информация : Audio Coding 3
    Расширение режима : CM (complete main)
    Параметр Endianness формата : Big
    Идентификатор кодека : 2000
    Продолжительность : 2 ч. 3 м.
    Вид битрейта : Постоянный
    Битрейт : 192 Кбит/сек
    Каналы : 2 канала
    Расположение каналов : Front: L R
    Частота : 48,0 КГц
    Битовая глубина : 16 бит
    Метод сжатия : С потерями
    Размер потока : 170 Мбайт (10%)
    Выравнивание : Разделение по промежуткам
    Продолжительность промежутка : 42 мс. (1,00 видеокадр)
    Время предзагрузки промежутка : 500 мс.
    Скриншоты для ознакомления





    Залил: msltel
    Размер скачиваемого торрента: 2.26 GB (2428588862 Bytes)

    3 женщины / 3 Women (1977) BDRip by msltel | P, P2, A торрент скачать бесплатно
    загрузка...
    Рейтинг →
     (голосов: 1, оценка 3/5, голосовать можно 1 раз )

    Другие торренты по теме:

  • 3 женщины / 3 Women (1977) BDRip 1080p by msltel | P, P2, A
  • 3 женщины / 3 Women (1977) BDRip 720p by msltel | P, P2, A скачать через торрент бесплатно
  • 3 женщины / 3 Women (1977) BDRip от HQ-ViDEO скачать через торрент бесплатно
  • 3 женщины / 3 Women (1977) BDRip 1080p от NNNB | P, P2, A
  • Искушение замужней женщины 3 / Murder 3 (2013) DVDRip
  • ХХVII Летняя Универсиада в Казани 2013. Баскетбол. Женщины. Группа А. 3-й тур. Россия - Швеция (2013) SATRip


    • Комментарии (0):

      Информация

      Информация

        Посетители, находящиеся в группе Гости, не могут оставлять комментарии в данной новости.

        ↓ Меню



        ↓ Опрос

        А Вы добавили сайт в закладки?
        Да
        Не


        Top 10 за месяц (Фильмы)