.
Авторизация | Регистрация
Хочешь лучшие торренты? Добавь свой email!
Добавить
» » Анатомия страсти / Анатомия Грей / Greys Anatomy (2013) WEB-DLRip | Fox Life скачать через торрент бесплатно




    Анатомия страсти / Анатомия Грей / Greys Anatomy (2013) WEB-DLRip | Fox Life скачать через торрент бесплатно

    Опубликовал: Админ | Дата: 27-02-2015, 11:09 | Просмотров: 374



    Детально о кино
    Русское название: Анатомия страсти / Анатомия Грей
    Русское название в мировом прокате: Grey;s Anatomy
    Создали в: 2013
    Категория жанра: медицинская драма, мелодрама
    Главный режиссер: Роб Корн, Тони Фелан, Том Верика, Чандра Уилсон
    Актеры: Эллен Помпео (Мередит Грей), Кэтрин Хайгл (Иззи Стивенс), Сандра О (Кристина Янг), Джастин Чэмберс (Алекс Карев), Кайлер Ли (Лекси Грей), Патрик Дэмпси (Дерек Шепард), Сара Рамирез (Кэлли Торрес), Эрик Дэйнс (Марк Слоан), Джеймс Пикенс мл. (Шеф Веббер), Чэндра Уилсон (Миранда Бэйли), Кевин МакКидд (Оуэн Хант), Джессика Кэпшоу (Аризона Роббинс) и др.

    Сюжет фильма:
    Продолжение знаменитой медицинской драмы о работе и личных отношениях хирургов сиэтлской больницы. Каждый день наполнен болью и счастьем, ссорами и примирениями, сложными дилеммами и необходимостью принять моментальное решение от которого зависит жизнь человека. В центре сюжета хирург - Мередит...
    Список серий

    01. Клеймо на нашей судьбе / Seal Our Fate
    02. Я хочу быть с тобой / I Want You with Me
    03. Плач милосердия каждого / Everybody;s Crying Mercy
    04. Одевающиеся по последней моде / Puttin; on the Ritz
    05. Бьюсь об заклад, оно жжется / I Bet It Stung
    06. Карта тебя / Map of You

    Интересно

    - Кэтрин Хайгл — самая молодая в актерском составе Анатомии страсти (1-3 сезон любимого сериалаы).
    - Актриса Сандра О изначально пробовалась на роль доктора Бейли.
    - В одном из первых эпизодов Мередит вывешивает объявление для поиска соседей к себе в дом. Данное объявление появляется в кадре всего одну секунду. В одном из требований к предполагаемым соседям указывается, что сторонники Буша не приветствуются.
    - Каждая серия сериала называется в честь песен известных исполнителей. Некоторые из них названы в честь песен группы The Beatles.
    - Персонаж Кейт Уолш, Эддисон Шеперд, изначально планировался использоваться в пяти сериях, но значительный интерес и поддержка со стороны фанов привели к тому, что её персонаж оставили в сериале.
    - Исайя Вашингтон был вынужден покинуть сериал после 3-го сезон любимого сериалаа в связи со скандалом, разразившимся на церемонии Золотой глобус, во время которой выяснилось, что Вашингтон несколько раз оскорбил своего коллегу Т. Р. Найта, указав на его нетрадиционную ориентацию.
    - На Шоу Опры Уинфри актёр Исайя Вашингтон заявил, что пробовался на роль доктора Шеперда.
    - Герой Кевина МакКидда носит хронограф Panerai PAM196.


    Снималось в: США
    Киностудия: ABC
    Время просмотра: ~ 00:44:00
    Перевод текста: Профессиональный (многоголосый, закадровый) - Fox Life

    Файл
    Кодек для видео: XviD
    Качество фильма: WEB-DLRip
    Информация о видео: 704x400 (16:9), 23.976 fps, ~1200 kbps, ~0.180 bit/pixel
    Информация о звуке:
    Аудио Rus: 48 kHz, 2 ch, 192 kbps |Fox Life|
    Аудио Eng: 48 kHz, 2 ch, 192 kbps |Original|
    Субтитры: Русские (FanatoMy Team), Английские

    Запись и сведение дорожки Fox Life, рип - LegendKiev
    За субтитры спасибо requiem
    MI

    Общее
    Формат : AVI
    Формат/Информация : Audio Video Interleave
    Размер файла : 500 Мбайт
    Продолжительность : 43 м.
    Общий поток : 1624 Кбит/сек
    Программа кодирования : VirtualDubMod 1.5.10.2 (build 2540/release)
    Библиотека кодирования : VirtualDubMod build 2540/release

    Видео
    Идентификатор : 0
    Формат : MPEG-4 Visual
    Профиль формата : Advanced Simple@L5
    Параметр BVOP формата : 1
    Параметр QPel формата : Нет
    Параметр GMC формата : Без точки перехода
    Параметр матрицы формата : Выборочная
    Идентификатор кодека : XVID
    Идентификатор кодека/Подсказка : XviD
    Продолжительность : 43 м.
    Битрейт : 1226 Кбит/сек
    Ширина : 704 пикселя
    Высота : 400 пикселей
    Соотношение сторон : 16:9
    Частота кадров : 23,976 кадра/сек
    Цветовое пространство : YUV
    Субдискретизация насыщенности : 4:2:0
    Битовая глубина : 8 бит
    Тип развёртки : Прогрессивная
    Метод сжатия : С потерями
    Бит/(Пиксели*Кадры) : 0.182
    Размер потока : 378 Мбайт (75%)
    Библиотека кодирования : XviD 73

    Аудио #1
    Идентификатор : 1
    Формат : AC-3
    Формат/Информация : Audio Coding 3
    Расширение режима : CM (complete main)
    Параметр Endianness формата : Big
    Идентификатор кодека : 2000
    Продолжительность : 43 м.
    Вид битрейта : Постоянный
    Битрейт : 192 Кбит/сек
    Каналы : 2 канала
    Расположение каналов : Front: L R
    Частота : 48,0 КГц
    Битовая глубина : 16 бит
    Метод сжатия : С потерями
    Размер потока : 59,2 Мбайт (12%)
    Выравнивание : Разделение по промежуткам
    Продолжительность промежутка : 42 мс. (1,00 видеокадр)
    Время предзагрузки промежутка : 500 мс.

    Аудио #2
    Идентификатор : 2
    Формат : AC-3
    Формат/Информация : Audio Coding 3
    Расширение режима : CM (complete main)
    Параметр Endianness формата : Big
    Идентификатор кодека : 2000
    Продолжительность : 43 м.
    Вид битрейта : Постоянный
    Битрейт : 192 Кбит/сек
    Каналы : 2 канала
    Расположение каналов : Front: L R
    Частота : 48,0 КГц
    Битовая глубина : 16 бит
    Метод сжатия : С потерями
    Размер потока : 59,2 Мбайт (12%)
    Выравнивание : Разделение по промежуткам
    Продолжительность промежутка : 42 мс. (1,00 видеокадр)
    Время предзагрузки промежутка : 500 мс.

    Скриншоты для ознакомления






    Релиз подготовил:
    Размер скачиваемого торрента: 500.50 MB (524809945 Bytes)

    Анатомия страсти / Анатомия Грей / Greys Anatomy (2013) WEB-DLRip | Fox Life скачать через торрент бесплатно
    загрузка...
    Рейтинг →
     (голосов: 1, оценка 4/5, голосовать можно 1 раз )

    Другие торренты по теме:

  • Анатомия страсти / Анатомия Грей / Greys Anatomy (2012) WEB-DLRip 1080i | Кубик в Кубе
  • Анатомия страсти / Анатомия Грей / Greys Anatomy (2012) WEB-DLRip 720p | FOX Life
  • Анатомия страсти / Анатомия Грей / Greys Anatomy (2012) WEB-DLRip | FOX Life
  • Анатомия страсти / Анатомия Грей / Greys Anatomy (2012) WEB-DL 1080p | Sub
  • Анатомия страсти / Анатомия Грей / Greys Anatomy (2013) HDTVRip
  • Анатомия страсти / Анатомия Грей / Greys Anatomy (2012) WEB-DL 1080p
  • Анатомия страсти / Анатомия Грей / Greys Anatomy (2013) HDTVRip 720р скачать через торрент бесплатно
  • Анатомия страсти / Анатомия Грей / Greys Anatomy (2013) WEB-DL 720p | Fox Life скачать через торрент бесплатно


    • Комментарии (0):

      Информация

      Информация

        Посетители, находящиеся в группе Гости, не могут оставлять комментарии в данной новости.

        ↓ Меню



        ↓ Опрос

        А Вы добавили сайт в закладки?
        Да
        Не


        Top 10 за месяц (Фильмы)