.
Авторизация | Регистрация
Хочешь лучшие торренты? Добавь свой email!
Добавить
» » Флюк / Fluke (1995) HDTVRip от New-Team скачать через торрент бесплатно




    Флюк / Fluke (1995) HDTVRip от New-Team скачать через торрент бесплатно

    Опубликовал: Админ | Дата: 27-02-2015, 11:09 | Просмотров: 436


    Снималось в: США
    Создали в: Metro-Goldwyn-Mayer (MGM), Rocket Pictures
    Категория жанра: фэнтези, драма, семейный
    Создали в: 1995
    Время просмотра: 01:31:33

    Перевод текста: Профессиональный (дублированный), Профессиональный (двухголосый закадровый)
    Оригинальная аудиодорожка: английский
    Субтитры подготовлены: нет

    Главный режиссер: Карло Карлей / Carlo Carlei

    Актеры:
    Рон Перлман, Мэтью Модайн, Нэнси Трэвис, Эрик Столц, Макс Померанц, Джон Полито, Билл Коббс, Коллин Уилкокс Пэкстон, Федерико Пачифичи, Сэмюэл Л. Джексон...

    Роли дублировали:
    Борис Быстров, Василий Куприянов, Любовь Германова, Никита Прозоровский, Ирина Гришина...

    Сюжет:
    Душа погибшего в автомобильной катастрофе молодого человека переселяется в очаровательного новорожденного щенка. Постепенно вырастая, он находит свою семью и вспоминает прошлую жизнь. Как выясняется, он не всегда был прав, когда был человеком...




    Исходник: HDTV 1080i
    Тип релиза: HDTVRip
    Контейнер: AVI

    Информация о видео: 720x400 (16:9), 25 fps, XviD ~ 1693 kbps avg, 0.235 bit/pixel
    Информация о звуке: 48 kHz, Dolby AC3 2.0, 192 kbps DUB
    Информация о звуке: 48 kHz, Dolby AC3 2.0, 192 kbps DVO
    Информация о звуке: 48 kHz, Dolby AC3 2.0, 192 kbps Original

    Раздача от:
    MediaInfo

    Общее
    Полное имя : Fluk.1995.HDTVRip_Youtracker_by_AVP Studio.avi
    Формат : AVI
    Формат/Информация : Audio Video Interleave
    Размер файла : 1,46 Гбайт
    Продолжительность : 1 ч. 31 м.
    Общий поток : 2288 Кбит/сек
    Программа кодирования : VirtualDubModRus 1.5.10.2 (build 2542/release)
    Библиотека кодирования : VirtualDubMod build 2542/release

    Видео
    Идентификатор : 0
    Формат : MPEG-4 Visual
    Профиль формата : Advanced Simple@L5
    Параметр BVOP формата : 1
    Параметр QPel формата : Нет
    Параметр GMC формата : Без точки перехода
    Параметр матрицы формата : Выборочная
    Идентификатор кодека : XVID
    Идентификатор кодека/Подсказка : XviD
    Продолжительность : 1 ч. 31 м.
    Битрейт : 1693 Кбит/сек
    Ширина : 720 пикселей
    Высота : 400 пикселей
    Соотношение сторон : 16:9
    Частота кадров : 25,000 кадров/сек
    Цветовое пространство : YUV
    Субдискретизация насыщенности : 4:2:0
    Битовая глубина : 8 бит
    Тип развёртки : Прогрессивная
    Метод сжатия : С потерями
    Бит/(Пиксели*Кадры) : 0.235
    Размер потока : 1,08 Гбайт (74%)
    Библиотека кодирования : XviD 73

    Аудио #1
    Идентификатор : 1
    Формат : AC-3
    Формат/Информация : Audio Coding 3
    Расширение режима : CM (complete main)
    Идентификатор кодека : 2000
    Продолжительность : 1 ч. 31 м.
    Вид битрейта : Постоянный
    Битрейт : 192 Кбит/сек
    Каналы : 2 канала
    Расположение каналов : Front: L R
    Частота : 48,0 КГц
    Битовая глубина : 16 бит
    Метод сжатия : С потерями
    Размер потока : 126 Мбайт (8%)
    Выравнивание : Разделение по промежуткам
    Продолжительность промежутка : 40 мс. (1,00 видеокадр)
    Время предзагрузки промежутка : 500 мс.

    Аудио #2
    Идентификатор : 2
    Формат : AC-3
    Формат/Информация : Audio Coding 3
    Расширение режима : CM (complete main)
    Идентификатор кодека : 2000
    Продолжительность : 1 ч. 31 м.
    Вид битрейта : Постоянный
    Битрейт : 192 Кбит/сек
    Каналы : 2 канала
    Расположение каналов : Front: L R
    Частота : 48,0 КГц
    Битовая глубина : 16 бит
    Метод сжатия : С потерями
    Размер потока : 126 Мбайт (8%)
    Выравнивание : Разделение по промежуткам
    Продолжительность промежутка : 40 мс. (1,00 видеокадр)
    Время предзагрузки промежутка : 500 мс.

    Аудио #3
    Идентификатор : 3
    Формат : AC-3
    Формат/Информация : Audio Coding 3
    Профиль формата : Dolby Digital
    Расширение режима : CM (complete main)
    Идентификатор кодека : 2000
    Продолжительность : 1 ч. 31 м.
    Вид битрейта : Постоянный
    Битрейт : 192 Кбит/сек
    Каналы : 2 канала
    Расположение каналов : Front: L R
    Частота : 48,0 КГц
    Битовая глубина : 16 бит
    Метод сжатия : С потерями
    Размер потока : 126 Мбайт (8%)
    Выравнивание : Разделение по промежуткам
    Продолжительность промежутка : 40 мс. (1,00 видеокадр)
    Время предзагрузки промежутка : 500 мс

    Скриншоты для ознакомления



    Интересные факты

    Фильм встретил плохой приём критиков и вообще потерпел коммерческую неудачу, собрав в прокате в США только $4 млн. К тому же, на сайте Rotten Tomatoes, посвящённом кинообзорам, получив около 38 % положительных отзывов, Флюк был удостоен почётного звания Rotten. Несмотря на это, в 1996 году фильм был номинирован Академией Научной Фантастики, Фэнтези и Хоррора на звание Лучшего Фильма-фэнтези, а Макс Померанк, сыгравший сына главного героя — на номинацию Лучшая детская роль.

    Главная роль исполнялась несколькими золотыми ретриверами и ирландскими сеттерами.

    Залил: AVPStudio
    Размер скачиваемого торрента: 1.46 GB (1571364864 Bytes)

    Флюк / Fluke (1995) HDTVRip от New-Team скачать через торрент бесплатно
    загрузка...
    Рейтинг →
     (голосов: 1, оценка 3/5, голосовать можно 1 раз )

    Другие торренты по теме:

  • Флюк / Fluke (1995) HDTVRip от Youtracker
  • Флюк / Fluke (1995) HDTVRip-AVC от ExKinoRay скачать через торрент бесплатно
  • Флюк / Fluke (1995) HDTVRip-AVC от New-Team скачать через торрент бесплатно
  • Флюк / Fluke (1995) WEBRip 1080p | P2, D, A


    • Комментарии (0):

      Информация

      Информация

        Посетители, находящиеся в группе Гости, не могут оставлять комментарии в данной новости.

        ↓ Меню



        ↓ Опрос

        А Вы добавили сайт в закладки?
        Да
        Не


        Top 10 за месяц (Фильмы)