.
Авторизация | Регистрация
Хочешь лучшие торренты? Добавь свой email!
Добавить
» » Перси Джексон и Море чудовищ / Percy Jackson: Sea of Monsters (2013) WEB-DLRip от New-Team | Чистый звук скачать торрент бесплатно




    Перси Джексон и Море чудовищ / Percy Jackson: Sea of Monsters (2013) WEB-DLRip от New-Team | Чистый звук скачать торрент бесплатно

    Опубликовал: Админ | Дата: 27-02-2015, 11:09 | Просмотров: 258

    Перси Джексон и Море чудовищ
    Percy Jackson: Sea of Monsters



    Снималось в: США
    Категория жанра: фэнтези, приключения, семейный
    Создали в: 2013
    Время просмотра: 01:46:30

    Перевод текста: Профессиональный (дублированный) Чистый звук
    Субтитры подготовлены: нет
    Главный режиссер: Тор Фройденталь / Thor Freudenthal

    Актеры: Логан Лерман, Александра Даддарио, Дуглас Смит, Ливэн Рамбин, Брэндон Т. Джексон, Джейк Эйбел, Энтони Хэд, Стэнли Туччи, Коннор Крэш Данн, Палома Квиатковски...

    Сюжет: Перси отправляется на поиски своего друга, сатира Гроувера, попавшего в ловушку к циклопу Полифему. На кону стоит не только сатир, но и весь Лагерь полукровок: кто-то отравил священное дерево Талии, а это значит, что защита лагеря вот-вот падет и уже ничто не сможет удержать чудовищ от вторжения. Исцелить дерево способно только мифическое Золотое руно, спрятанное на острове Полифема — и, чтобы добраться до него, необходимо переплыть Море Чудовищ и сразиться с его обитателями — Сциллой и Харибдой, сладкоголосыми сиренами и коварной волшебницей Цирцеей.

    Автор рипа: _Flash

    Раздача от:




    Качество фильма видео: WEB-DLRip
    Тип видео видео: AVI

    Информация о видео: 720x304, 23.976 fps, XviD build 73 ~1565 kbps avg, 0.300 bit/pixel
    Информация о звуке: 48 kHz, AC3 Dolby Digital, 3/2 (L,C,R,l,r) LFE ch, ~384 kbps


    Отчёт MediaInfo

    Общее
    Полное имя : D:Persi.Djekson.i.more.chudovish.2013.D.WED-DLRip.By_Flash.avi
    Формат : AVI
    Формат/Информация : Audio Video Interleave
    Размер файла : 1,46 Гбайт
    Продолжительность : 1 ч. 46 м.
    Общий поток : 1958 Кбит/сек
    Программа кодирования : VirtualDubMod 1.5.10.3 | www.virtualdub-fr.org || (build 2550/release)
    Библиотека кодирования : VirtualDubMod build 2550/release

    Видео
    Идентификатор : 0
    Формат : MPEG-4 Visual
    Профиль формата : Advanced Simple@L5
    Параметр BVOP формата : 1
    Параметр QPel формата : Нет
    Параметр GMC формата : Без точки перехода
    Параметр матрицы формата : Выборочная
    Идентификатор кодека : XVID
    Идентификатор кодека/Подсказка : XviD
    Продолжительность : 1 ч. 46 м.
    Битрейт : 1565 Кбит/сек
    Ширина : 720 пикселей
    Высота : 304 пикселя
    Соотношение сторон : 2,35:1
    Частота кадров : 23,976 кадра/сек
    Цветовое пространство : YUV
    Субдискретизация насыщенности : 4:2:0
    Битовая глубина : 8 бит
    Тип развёртки : Прогрессивная
    Метод сжатия : С потерями
    Бит/(Пиксели*Кадры) : 0.298
    Размер потока : 1,16 Гбайт (80%)
    Библиотека кодирования : XviD 73

    Аудио
    Идентификатор : 1
    Формат : AC-3
    Формат/Информация : Audio Coding 3
    Расширение режима : CM (complete main)
    Параметр Endianness формата : Big
    Идентификатор кодека : 2000
    Продолжительность : 1 ч. 46 м.
    Вид битрейта : Постоянный
    Битрейт : 384 Кбит/сек
    Каналы : 6 каналов
    Расположение каналов : Front: L C R, Side: L R, LFE
    Частота : 48,0 КГц
    Битовая глубина : 16 бит
    Метод сжатия : С потерями
    Размер потока : 293 Мбайт (20%)
    Выравнивание : Разделение по промежуткам
    Продолжительность промежутка : 42 мс. (1,00 видеокадр)
    Время предзагрузки промежутка : 500 мс.



    Скриншоты для ознакомления



    Залил: Flash_
    Размер скачиваемого торрента: 1.46 GB (1564141568 Bytes)

    Перси Джексон и Море чудовищ / Percy Jackson: Sea of Monsters (2013) WEB-DLRip от New-Team | Чистый звук торрент скачать бесплатно
    загрузка...
    Рейтинг →
     (голосов: 1, оценка 4/5, голосовать можно 1 раз )

    Другие торренты по теме:

  • OST - Перси Джексон и похититель молний / Percy Jackson And The Lightening Thief (2010) MP3
  • Перси Джексон и похититель молний / Percy Jackson and the Olympians: The Lightning Thief (2010) BDRip-AVC от potroks | D
  • Перси Джексон: Море чудовищ / Percy Jackson: Sea of Monsters (2013) HD 1080p | Трейлер
  • Перси Джексон и похититель молний / Percy Jackson the Olympians: The Lightning Thief (2010) BDRip 1080p от NoLimits-Team
  • Перси Джексон и Море чудовищ / Percy Jackson: Sea of Monsters (2013) CAMRip*PROPER* от INTERCINEMA
  • Перси Джексон и Море чудовищ / Percy Jackson: Sea of Monsters (2013) TS от INTERCINEMA
  • Перси Джексон и Море чудовищ / Percy Jackson: Sea of Monsters (2013) WEB-DLRip 1080p | Звук с CAMRip
  • Перси Джексон и Море чудовищ / Percy Jackson: Sea of Monsters (2013) WEB-DLRip | Звук с CAMRip


    • Комментарии (0):

      Информация

      Информация

        Посетители, находящиеся в группе Гости, не могут оставлять комментарии в данной новости.

        ↓ Меню



        ↓ Опрос

        А Вы добавили сайт в закладки?
        Да
        Не


        Top 10 за месяц (Фильмы)