.
Авторизация | Регистрация
Хочешь лучшие торренты? Добавь свой email!
Добавить
» » Влюбленный скорпион / Alacrn enamorado (2013) BDRip 720p | Лицензия скачать торрент бесплатно




    Влюбленный скорпион / Alacrn enamorado (2013) BDRip 720p | Лицензия скачать торрент бесплатно

    Опубликовал: Админ | Дата: 27-02-2015, 11:09 | Просмотров: 300



    Детально о кино
    Русское название: Влюбленный скорпион
    Русское название в мировом прокате: Alacr?n enamorado
    Создали в: 2013
    Категория жанра: триллер, драма, мелодрама
    Главный режиссер: Сантьяго Санноу
    Актеры: Алекс Гонсалес, Джудит Диакате, Карлос Бардем, Мигель Анхель Сильвестре, Хавьер Бардем, Элио Сагуэс, Хавьер Мансебо, Досель Камана Гомбе, Карлос Каниовски, Малена Гутьеррес

    Сюжет фильма: Хулиан, член неонацистской группировки, цель которой — зачистка улиц от черных и арабов, начинает тренироваться у Карломонте, в прошлом прославленного боксера, а ныне — пьяницы, разрушившего свою жизнь. Но рядом с этим человеком, жестким и упрямым, Хулиан постепенно начинает меняться. Он отдаляется от бывших дружков, влюбляется в Алису, девушку, работающую в спортзале, у него появляется новый приятель — его чернокожий спарринг-партнер Фрэнки. Новая жизнь ему нравится больше, чем прежняя. Но главарь неонацистов Луис считает, что Хулиан предатель, а это значит, что он должен понести жестокое наказание.



    Снималось в: Испания / Morena Films
    Время просмотра: 01:40:05
    Тип перевода: Дублированное лицензия

    Файл
    Тип видео: MKV
    Качество фильма: BDRip 720p
    Информация о видео: 6138 kb/s, 1280x544
    Информация о звуке: Russian: AC3, 384 kb/s (6 ch) / Spanish: AC3, 640 kb/s (6 ch)
    Дополнительно: Сохранены чаптеры как на Bluray





    MI

    Format : Matroska
    Format version : Version 4 / Version 2
    File size : 5.01 GiB
    Duration : 1h 40mn
    Overall bit rate : 7 165 Kbps
    Encoded date : UTC 2013-11-10 09:18:43
    Writing application : mkvmerge v6.5.0 (;Isn;t she lovely;) built on Oct 20 2013 12:50:05
    Writing library : libebml v1.3.0 libmatroska v1.4.1

    Video
    ID : 1
    Format : AVC
    Format/Info : Advanced Video Codec
    Format profile : High@L4.1
    Format settings, CABAC : Yes
    Format settings, ReFrames : 4 frames
    Codec ID : V_MPEG4/ISO/AVC
    Duration : 1h 40mn
    Bit rate : 6 138 Kbps
    Width : 1 280 pixels
    Height : 544 pixels
    Display aspect ratio : 2.35:1
    Frame rate : 24.000 fps
    Color space : YUV
    Chroma subsampling : 4:2:0
    Bit depth : 8 bits
    Scan type : Progressive
    Bits/(Pixel*Frame) : 0.367
    Stream size : 4.19 GiB (84%)
    Writing library : x264 core 133 r2334 a3ac64b
    Encoding settings : cabac=1 / ref=4 / deblock=1:-3:-3 / analyse=0x3:0x133 / me=umh / subme=10 / psy=1 / psy_rd=1.00:0.00 / mixed_ref=1 / me_range=48 / chroma_me=1 / trellis=2 / 8x8dct=1 / cqm=0 / deadzone=21,11 / fast_pskip=0 / chroma_qp_offset=-2 / threads=12 / lookahead_threads=2 / sliced_threads=0 / nr=0 / decimate=1 / interlaced=0 / bluray_compat=0 / constrained_intra=0 / bframes=8 / b_pyramid=2 / b_adapt=2 / b_bias=0 / direct=3 / weightb=1 / open_gop=0 / weightp=2 / keyint=250 / keyint_min=23 / scenecut=40 / intra_refresh=0 / rc_lookahead=40 / rc=2pass / mbtree=1 / bitrate=6138 / ratetol=1.0 / qcomp=0.60 / qpmin=5 / qpmax=45 / qpstep=2 / cplxblur=20.0 / qblur=0.5 / vbv_maxrate=40000 / vbv_bufsize=30000 / nal_hrd=none / ip_ratio=1.40 / aq=2:1.00
    Language : Spanish
    Default : Yes
    Forced : Yes

    Audio #1
    ID : 2
    Format : AC-3
    Format/Info : Audio Coding 3
    Mode extension : CM (complete main)
    Format settings, Endianness : Big
    Codec ID : A_AC3
    Duration : 1h 40mn
    Bit rate mode : Constant
    Bit rate : 384 Kbps
    Channel(s) : 6 channels
    Channel positions : Front: L C R, Side: L R, LFE
    Sampling rate : 48.0 KHz
    Bit depth : 16 bits
    Compression mode : Lossy
    Stream size : 275 MiB (5%)
    Language : Russian
    Default : Yes
    Forced : Yes

    Audio #2
    ID : 3
    Format : AC-3
    Format/Info : Audio Coding 3
    Mode extension : CM (complete main)
    Format settings, Endianness : Big
    Codec ID : A_AC3
    Duration : 1h 40mn
    Bit rate mode : Constant
    Bit rate : 640 Kbps
    Channel(s) : 6 channels
    Channel positions : Front: L C R, Side: L R, LFE
    Sampling rate : 48.0 KHz
    Bit depth : 16 bits
    Compression mode : Lossy
    Stream size : 458 MiB (9%)
    Title : 640
    Language : Spanish
    Default : No
    Forced : No

    Menu
    00:00:00.000 : en:00:00:00.000
    00:05:30.667 : en:00:05:30.667
    00:14:46.417 : en:00:14:46.417
    00:21:53.583 : en:00:21:53.583
    00:30:45.375 : en:00:30:45.375
    00:39:33.750 : en:00:39:33.750
    00:47:22.500 : en:00:47:22.500
    00:56:20.708 : en:00:56:20.708
    01:03:51.625 : en:01:03:51.625
    01:10:33.583 : en:01:10:33.583
    01:19:55.250 : en:01:19:55.250
    01:28:29.583 : en:01:28:29.583
    Скриншоты для ознакомления

    Размер скачиваемого торрента: 5.01 GB (5378364424 Bytes)

    Влюбленный скорпион / Alacrn enamorado (2013) BDRip 720p | Лицензия торрент скачать бесплатно
    загрузка...
    Рейтинг →
     (голосов: 1, оценка 3/5, голосовать можно 1 раз )

    Другие торренты по теме:

  • Влюбленный скорпион / Alacrn enamorado (2013) HDRip-AVC | Лицензия
  • Влюбленный скорпион / Alacrn enamorado (2013) HDRip от InterCinema скачать через торрент бесплатно
  • Влюбленный скорпион / Alacrn enamorado (2013) HDRip от New-Team | D | Лицензия
  • Влюбленный скорпион / Alacrn enamorado (2013) HDRip от Scarabey | D | Лицензия скачать через торрент бесплатно
  • Влюбленный скорпион / Alacrn enamorado (2013) HDRip от Scarabey | D | Лицензия скачать через торрент бесплатно


    • Комментарии (0):

      Информация

      Информация

        Посетители, находящиеся в группе Гости, не могут оставлять комментарии в данной новости.

        ↓ Меню



        ↓ Опрос

        А Вы добавили сайт в закладки?
        Да
        Не


        Top 10 за месяц (Фильмы)