.
Авторизация | Регистрация
Хочешь лучшие торренты? Добавь свой email!
Добавить
» » Привет, Герман! / Hello Herman (2012) HDRip от BitTracker скачать торрент бесплатно




    Привет, Герман! / Hello Herman (2012) HDRip от BitTracker скачать торрент бесплатно

    Опубликовал: Админ | Дата: 27-02-2015, 11:09 | Просмотров: 347



    Детально о кино
    Русское название: Привет, Герман!
    Русское название в мировом прокате: Hello Herman
    Создали в: 2012
    Категория жанра: драма
    Главный режиссер: Мишель Дэннер / Michelle Danner
    Актеры: Норман Ридус, Гаррет Бэкстром, Марта Игареда, Роб Эстес, Сабрина Деблер, Энди МакФи, Оливия Фэй, Джейк Уайт, Алекс Нойбергер, Линдсэй Бушмен

    Сюжет фильма:
    В одном из провинциальных городов США шестнадцатилетний Герман Говардс приносит в свою школу оружие и расстреливает тридцать девять учеников, двух учителей и офицера полиции. Эту бойню Герман снимает на камеру, и незадолго до ареста, посылает по электронной почте видео своему кумиру, известному журналисту Лаксу Моралесу. В этом видео он говорит Лаксу, что хочет рассказать свою историю в его передаче.




    Снималось в: США
    Время просмотра: 01:27:33
    Перевод текста: Любительский (двухголосый) DeadSno den904

    Файл
    Кодек для видео: XviD
    Качество фильма: HDRip (Исх. BDRip 1080p PSYCHD)
    Информация о видео: 656x352 (1.86:1), 23.976 fps, XviD build 50 ~1054 kbps avg, 0.19 bit/pixel
    Информация о звуке: 48 kHz, MPEG Layer 3, 2 ch, ~128.00 kbps avg
    Субтитры: нет

    Семпл

    MediaInfo

    Общее
    Полное имя : S:ФильмыПривет, Герман. 2012. HDRip. 746 (AleksSin).avi
    Формат : AVI
    Формат/Информация : Audio Video Interleave
    Размер файла : 746 Мбайт
    Продолжительность : 1 ч. 27 м.
    Общий поток : 1192 Кбит/сек
    Программа кодирования : VirtualDubMod 1.5.10.3 | www.virtualdub-fr.org || (build 2550/release)
    Библиотека кодирования : VirtualDubMod build 2550/release

    Видео
    Идентификатор : 0
    Формат : MPEG-4 Visual
    Профиль формата : Advanced Simple@L5
    Параметр BVOP формата : 2
    Параметр QPel формата : Нет
    Параметр GMC формата : Без точки перехода
    Параметр матрицы формата : Default (H.263)
    Идентификатор кодека : XVID
    Идентификатор кодека/Подсказка : XviD
    Продолжительность : 1 ч. 27 м.
    Битрейт : 1054 Кбит/сек
    Ширина : 656 пикс.
    Высота : 352 пикс.
    Соотношение сторон : 1,864
    Частота кадров : 23,976 кадр/сек
    Цветовое пространство : YUV
    Подвыборка цветности : 4:2:0
    Битовая глубина : 8 бит
    Тип развёртки : Прогрессивная
    Метод сжатия : С потерями
    Бит/(Пиксели*Кадры) : 0.190
    Размер потока : 660 Мбайт (88%)
    Библиотека кодирования : XviD 1.2.1 (UTC 2008-12-04)

    Аудио
    Идентификатор : 1
    Формат : MPEG Audio
    Версия формата : Version 1
    Профиль формата : Layer 3
    Идентификатор кодека : 55
    Идентификатор кодека/Подсказка : MP3
    Продолжительность : 1 ч. 27 м.
    Вид битрейта : Постоянный
    Битрейт : 128 Кбит/сек
    Каналы : 2 канала
    Частота : 48,0 КГц
    Метод сжатия : С потерями
    Размер потока : 80,2 Мбайт (11%)
    Выравнивание : Соединение по промежуткам
    Продолжительность промежутка : 42 мс. (1,00 видеокадр)
    Время предзагрузки промежутка : 504 ms
    Библиотека кодирования : LAME3.99r
    Залил: AleksSin
    Размер скачиваемого торрента: 746.34 MB (782596096 Bytes)


    Привет, Герман! / Hello Herman (2012) HDRip от BitTracker торрент скачать бесплатно
    загрузка...
    Рейтинг →
     (голосов: 1, оценка 5/5, голосовать можно 1 раз )

    Другие торренты по теме:

  • Привет, Фриско, Привет / Hello Frisco, Hello (1943) DVDRip | SATKUR
  • Привет, Билл! / Meet Bill / Bill (2007) BDRip от Rulya74
  • Сборник - Музыкальный привет от радио DFM (2013) MP3
  • Привет, мне пора / Hello I Must Be Going (2012) WEB-DLRip | P
  • Привет от Катюши (2013) HDTVRip от Files-x
  • Привет от Катюши (2013) SATRip
  • Привет от Катюши (2013) HDTV (1080i) от Files-x
  • Привет от Катюши (2013) HDTVRip 720p


    • Комментарии (0):

      Информация

      Информация

        Посетители, находящиеся в группе Гости, не могут оставлять комментарии в данной новости.

        ↓ Меню



        ↓ Опрос

        А Вы добавили сайт в закладки?
        Да
        Не


        Top 10 за месяц (Фильмы)