.
Авторизация | Регистрация
Хочешь лучшие торренты? Добавь свой email!
Добавить
» » Перси Джексон и Море чудовищ / Percy Jackson: Sea of Monsters (2013) WEB-DL 1800p | Чистый звук скачать торрент бесплатно




    Перси Джексон и Море чудовищ / Percy Jackson: Sea of Monsters (2013) WEB-DL 1800p | Чистый звук скачать торрент бесплатно

    Опубликовал: Админ | Дата: 27-02-2015, 11:09 | Просмотров: 384



    Детально о кино
    Русское название: Перси Джексон и Море чудовищ
    Русское название в мировом прокате: Percy Jackson: Sea of Monsters
    Создали в: 2013
    Категория жанра: фэнтези, приключения, семейный
    Главный режиссер: Тор Фройденталь
    Актеры: Логан Лерман, Александра Даддарио, Дуглас Смит, Ливэн Рамбин, Брэндон Т. Джексон, Джейк Эйбел, Энтони Хэд, Стэнли Туччи, Коннор Крэш Данн, Палома Квиатковски

    Сюжет фильма:
    Перси отправляется на поиски своего друга, сатира Гроувера, попавшего в ловушку к циклопу Полифему. На кону стоит не только сатир, но и весь Лагерь полукровок: кто-то отравил священное дерево Талии, а это значит, что защита лагеря вот-вот падет и уже ничто не сможет удержать чудовищ от вторжения. Исцелить дерево способно только мифическое Золотое руно, спрятанное на острове Полифема — и, чтобы добраться до него, необходимо переплыть Море Чудовищ и сразиться с его обитателями — Сциллой и Харибдой, сладкоголосыми сиренами и коварной волшебницей Цирцеей.



    Снималось в: США
    Время просмотра: 01:46:30
    Перевод текста: Дублированное Чистый звук

    Файл
    Кодек для видео: h.264
    Качество фильма: WEB-DL (1080p)
    Информация о видео: MPEG-4 AVC, 4 488 Кбит/с, 1916x812
    Информация о звуке: Русский (AC3, 6 ch, 384 Кбит/с), Английский (AC3, 6 ch, 384 Кбит/с)
    Субтитры: Нет

    Семпл

    Скриншоты для ознакомления



    Mi

    General
    Unique ID : 176726810555585198328763217638342907308 (0x84F4587C06F7D76C97649B39049DD5AC)
    Complete name : E:Percy.Jackson.Sea.of.Monsters.2013.1080p.WEB-DL.-Serval.mkv
    Format : Matroska
    Format version : Version 4 / Version 2
    File size : 4.04 GiB
    Duration : 1h 46mn
    Overall bit rate : 5 428 Kbps
    Encoded date : UTC 2013-11-10 19:02:58
    Writing application : mkvmerge v6.4.1 (;Omega Point;) built on Sep 16 2013 22:05:10
    Writing library : libebml v1.3.0 libmatroska v1.4.1

    Video
    ID : 1
    Format : AVC
    Format/Info : Advanced Video Codec
    Format profile : High@L4.0
    Format settings, CABAC : Yes
    Format settings, ReFrames : 5 frames
    Codec ID : V_MPEG4/ISO/AVC
    Duration : 1h 46mn
    Bit rate : 4 488 Kbps
    Width : 1 916 pixels
    Height : 812 pixels
    Display aspect ratio : 2.35:1
    Frame rate mode : Constant
    Frame rate : 23.976 fps
    Color space : YUV
    Chroma subsampling : 4:2:0
    Bit depth : 8 bits
    Scan type : Progressive
    Bits/(Pixel*Frame) : 0.120
    Stream size : 3.34 GiB (83%)
    Language : English
    Default : Yes
    Forced : No
    Color primaries : BT.709
    Transfer characteristics : BT.709
    Matrix coefficients : BT.709

    Audio #1
    ID : 2
    Format : AC-3
    Format/Info : Audio Coding 3
    Mode extension : CM (complete main)
    Format settings, Endianness : Big
    Codec ID : A_AC3
    Duration : 1h 46mn
    Bit rate mode : Constant
    Bit rate : 384 Kbps
    Channel(s) : 6 channels
    Channel positions : Front: L C R, Side: L R, LFE
    Sampling rate : 48.0 KHz
    Bit depth : 16 bits
    Compression mode : Lossy
    Stream size : 293 MiB (7%)
    Title : Дубляж Чистый звук
    Language : Russian
    Default : Yes
    Forced : No

    Audio #2
    ID : 3
    Format : AC-3
    Format/Info : Audio Coding 3
    Mode extension : CM (complete main)
    Format settings, Endianness : Big
    Codec ID : A_AC3
    Duration : 1h 46mn
    Bit rate mode : Constant
    Bit rate : 448 Kbps
    Channel(s) : 6 channels
    Channel positions : Front: L C R, Side: L R, LFE
    Sampling rate : 48.0 KHz
    Bit depth : 16 bits
    Compression mode : Lossy
    Delay relative to video : 500ms
    Stream size : 341 MiB (8%)
    Language : English
    Default : No
    Forced : No

    Menu
    00:00:00.000 : en:1
    00:04:06.000 : en:2
    00:06:44.000 : en:3
    00:09:32.000 : en:4
    00:13:54.000 : en:5
    00:19:18.000 : en:6
    00:20:49.000 : en:7
    00:22:11.000 : en:8
    00:25:30.000 : en:9
    00:28:24.000 : en:10
    00:30:28.000 : en:11
    00:33:21.000 : en:12
    00:37:02.000 : en:13
    00:39:50.000 : en:14
    00:45:17.000 : en:15
    00:48:51.000 : en:16
    00:52:44.000 : en:17
    00:56:36.000 : en:18
    01:00:21.000 : en:19
    01:03:37.000 : en:20
    01:05:42.000 : en:21
    01:10:43.000 : en:22
    01:12:33.000 : en:23
    01:16:54.000 : en:24
    01:19:40.000 : en:25
    01:23:03.000 : en:26
    01:25:49.000 : en:27
    01:29:55.000 : en:28
    01:32:48.000 : en:29
    01:34:26.000 : en:30
    01:36:09.000 : en:31
    01:37:39.000 : en:32



    Размер скачиваемого торрента: 4.04 GB (4336023095 Bytes)

    Перси Джексон и Море чудовищ / Percy Jackson: Sea of Monsters (2013) WEB-DL 1800p | Чистый звук торрент скачать бесплатно
    загрузка...
    Рейтинг →
     (голосов: 1, оценка 5/5, голосовать можно 1 раз )

    Другие торренты по теме:

  • OST - Перси Джексон и похититель молний / Percy Jackson And The Lightening Thief (2010) MP3
  • Перси Джексон и похититель молний / Percy Jackson and the Olympians: The Lightning Thief (2010) BDRip-AVC от potroks | D
  • Перси Джексон: Море чудовищ / Percy Jackson: Sea of Monsters (2013) HD 1080p | Трейлер
  • Перси Джексон и похититель молний / Percy Jackson the Olympians: The Lightning Thief (2010) BDRip 1080p от NoLimits-Team
  • Перси Джексон и Море чудовищ / Percy Jackson: Sea of Monsters (2013) CAMRip*PROPER* от INTERCINEMA
  • Перси Джексон и Море чудовищ / Percy Jackson: Sea of Monsters (2013) TS от INTERCINEMA
  • Перси Джексон и Море чудовищ / Percy Jackson: Sea of Monsters (2013) WEB-DLRip 1080p | Звук с CAMRip
  • Перси Джексон и Море чудовищ / Percy Jackson: Sea of Monsters (2013) WEB-DLRip | Звук с CAMRip


    • Комментарии (0):

      Информация

      Информация

        Посетители, находящиеся в группе Гости, не могут оставлять комментарии в данной новости.

        ↓ Меню



        ↓ Опрос

        А Вы добавили сайт в закладки?
        Да
        Не


        Top 10 за месяц (Фильмы)