.
Авторизация | Регистрация
Хочешь лучшие торренты? Добавь свой email!
Добавить
» » Смертельное течение / Curacao (1993) DVDRip от NovaLan скачать торрент бесплатно




    Смертельное течение / Curacao (1993) DVDRip от NovaLan скачать торрент бесплатно

    Опубликовал: Админ | Дата: 27-02-2015, 11:09 | Просмотров: 329





    Снималось в: США
    Создали в: Circling Cura?ao, Jones Programming Partners
    Категория жанра: Боевик
    Создали в: 1993

    Время просмотра: 01:28:37


    Перевод текста: Профессиональный многоголосый

    Оригинальная аудиодорожка: Английская

    Субтитры подготовлены: Нет


    Главный режиссер: Карл Шульц


    Актеры: Джордж К. Скотт, Уильям Л. Питерсен, Джули Кармен, Алексей Сейл, Триш Ван Девере, Мария Эллингсен, Филип Энглим, Деннис Липском, Расселл Милтон, Дэвид Дунард




    Сюжет: Скотт, капитан ВМС, ушел на покой и купил себе бар в Кюрасао. Казалось, спокойная старость обеспечена. Но однажды прошлое возвращается. Он оказывается втянутым в опасную интригу, связанную с торговлей оружием.

    Исходник: DVD5 R5

    Тип релиза: DVDRip

    Контейнер: AVI


    Информация о видео: 704x528 (1.33:1), 23.976 fps, XviD ~1567 kbps avg, 0.18 bit/pixel
    Информация о звуке: #1: 48 kHz, AC3 6.0 ~384.00 kbps avg (RUS)
    Информация о звуке: #2: 48 kHz, AC3 6.0 ~384.00 kbps avg (ENG)



    MediaInfo
    Общее
    Полное имя : D:1АААСмертельное течение.avi
    Формат : AVI
    Формат/Информация : Audio Video Interleave
    Размер файла : 1,46 Гбайт
    Продолжительность : 1 ч. 28 м.
    Общий поток : 2351 Кбит/сек
    Программа кодирования : VirtualDubMod 1.5.10.2 (build 2540/release)
    Библиотека кодирования : VirtualDubMod build 2540/release

    Видео
    Идентификатор : 0
    Формат : MPEG-4 Visual
    Профиль формата : Advanced Simple@L5
    Параметр BVOP формата : 2
    Параметр QPel формата : Нет
    Параметр GMC формата : Без точки перехода
    Параметр матрицы формата : Default (H.263)
    Режим смешивания : Сжатый битовый поток
    Идентификатор кодека : XVID
    Идентификатор кодека/Подсказка : XviD
    Продолжительность : 1 ч. 28 м.
    Битрейт : 1569 Кбит/сек
    Ширина : 704 пикселя
    Высота : 528 пикселей
    Соотношение сторон : 4:3
    Частота кадров : 23,976 кадра/сек
    Цветовое пространство : YUV
    Субдискретизация насыщенности : 4:2:0
    Битовая глубина : 8 бит
    Тип развёртки : Прогрессивная
    Метод сжатия : С потерями
    Бит/(Пиксели*Кадры) : 0.176
    Размер потока : 994 Мбайт (67%)
    Библиотека кодирования : XviD 1.2.1 (UTC 2008-12-04)

    Аудио #1
    Идентификатор : 1
    Формат : AC-3
    Формат/Информация : Audio Coding 3
    Расширение режима : CM (complete main)
    Параметр Endianness формата : Big
    Идентификатор кодека : 2000
    Продолжительность : 1 ч. 28 м.
    Вид битрейта : Постоянный
    Битрейт : 384 Кбит/сек
    Каналы : 6 каналов
    Расположение каналов : Front: L C R, Side: L R, LFE
    Частота : 48,0 КГц
    Битовая глубина : 16 бит
    Метод сжатия : С потерями
    Размер потока : 243 Мбайт (16%)
    Выравнивание : Разделение по промежуткам
    Продолжительность промежутка : 42 мс. (1,00 видеокадр)
    Время предзагрузки промежутка : 500 мс.

    Аудио #2
    Идентификатор : 2
    Формат : AC-3
    Формат/Информация : Audio Coding 3
    Расширение режима : CM (complete main)
    Параметр Endianness формата : Big
    Идентификатор кодека : 2000
    Продолжительность : 1 ч. 28 м.
    Вид битрейта : Постоянный
    Битрейт : 384 Кбит/сек
    Каналы : 6 каналов
    Расположение каналов : Front: L C R, Side: L R, LFE
    Частота : 48,0 КГц
    Битовая глубина : 16 бит
    Метод сжатия : С потерями
    Размер потока : 243 Мбайт (16%)
    Выравнивание : Разделение по промежуткам
    Продолжительность промежутка : 42 мс. (1,00 видеокадр)
    Время предзагрузки промежутка : 500 мс.







    Скриншоты для ознакомления



    Релиз группа:

    Автор рипа:
    Залил: YArl
    Размер скачиваемого торрента: 1.46 GB (1562306560 Bytes)

    Смертельное течение / Curacao (1993) DVDRip от NovaLan торрент скачать бесплатно
    загрузка...
    Рейтинг →
     (голосов: 1, оценка 3/5, голосовать можно 1 раз )

    Другие торренты по теме:

  • Смертельное оружие / Lethal Weapon (2017) WEB-DLRip 720p | Sunshine Studio
  • Смертельное оружие: Квадрология / Lethal Weapon: Quadrilogy (1987-1998) BDRip 1080p от R.G. GoldenShara
  • Смертельное благословение / Deadly Blessing (1981) DVDRip | P
  • Христофоров Игорь - Смертельное шоу (2013) MP3
  • Смертельное напряжение. Прорыв Неукротимого / Deadly Voltage: Rise of the Invincible (2013) PC
  • Смертельное преследование / No Brother of Mine (2007) SATRip от ClubTorrent | P2
  • Смертельное оружие / Lethal Weapon (1987) DVDRip-AVC | А | Режиссерская версия / Directors Cut
  • National Geographic. Скорость - смертельное оружие / Killer Instincts: Speed (2003) DVDRip-AVC от Тorrent-Хzona


    • Комментарии (0):

      Информация

      Информация

        Посетители, находящиеся в группе Гости, не могут оставлять комментарии в данной новости.

        ↓ Меню



        ↓ Опрос

        А Вы добавили сайт в закладки?
        Да
        Не


        Top 10 за месяц (Фильмы)