.
Авторизация | Регистрация
Хочешь лучшие торренты? Добавь свой email!
Добавить
» » Повелитель лавин / Prince Avalanche (2013) BDRip-AVC от MediaClub | P скачать торрент бесплатно




    Повелитель лавин / Prince Avalanche (2013) BDRip-AVC от MediaClub | P скачать торрент бесплатно

    Опубликовал: Админ | Дата: 27-02-2015, 11:09 | Просмотров: 245



    Детально о кино
    Русское название: Повелитель лавин
    Русское название в мировом прокате: Prince Avalanche
    Создали в: 2013
    Категория жанра: Драма, комедия
    Главный режиссер: Дэвид Гордон Грин
    Актеры: Пол Радд, Эмиль Хирш, Лэнс ЛеГолт, Джойс Пэйн, Джина Гранде, Линн Шелтон, Ларри Кречмар, Энок Мун, Дэвид Л. Осборн мл., Дэнни Уолкотт

    Сюжет фильма:
    Элвин и Лэнс проводят лето 1988 года в пустынном, выжженном пожарами лесу, занимаясь монотонной работой, перекрашивая знаки на бесконечной проселочной дороге. Лэнсу нелегко в этой глуши прожить без вечеринок и девочек, в отличие от более серьезного Элвина, который пишет страстные письма своей девушке, старшей сестре Лэнса. На протяжении этого долгого лета они встречают только одного человека — таинственного водителя грузовика, который щедро угощает их домашней выпивкой, а затем исчезает так же внезапно, как и появился.



    Снималось в: США / Bear Media, The, Dogfish Pictures, Dreambridge Films, Lankn Partners, Muskat Filmed Properties LLC, Rough House Pictures, To Get to the Other Side Productions
    Время просмотра: 01:33:22
    Перевод текста: Профессиональный многоголосый

    Файл
    Кодек для видео: x264
    Качество фильма: BDRip (AVC)
    Информация о видео: MPEG-4 AVC, 2750 Кбит/с, 1024x426, 23.976 кадр/с
    Информация о звуке #1: Русский (AC3, 2 ch, 192 Кбит/с) / Профессиональный многоголосый (Ozz)
    Информация о звуке #2: Английский (AC3, 6 ch, 448 Кбит/с)
    Субтитры: Русские, английские

    Семпл

    О релизе
    • За исходник СПАСИБО PublicHD

    • Сохраненны оригинальные чаптеры как на Blu-Ray

    --------------------------------------------------------------------------------------
    x264 info: frame I:857 Avg QP:16.30 size: 97652
    x264 info: frame P:34763 Avg QP:18.77 size: 29619
    x264 info: frame B:98689 Avg QP:20.87 size: 8231
    --------------------------------------------------------------------------------------

    MI
    Format : Matroska
    Format version : Version 4 / Version 2
    File size : 2.21 GiB
    Duration : 1h 33mn
    Overall bit rate : 3 392 Kbps
    Movie name : -=MediaClub - Odessit=-
    Encoded date : UTC 2013-11-09 15:42:37
    Writing application : mkvmerge v6.2.0 (;Promised Land;) built on Apr 28 2013 12:22:01
    Writing library : libebml v1.3.0 libmatroska v1.4.0

    Video
    ID : 1
    Format : AVC
    Format/Info : Advanced Video Codec
    Format profile : High@L4.1
    Format settings, CABAC : Yes
    Format settings, ReFrames : 10 frames
    Codec ID : V_MPEG4/ISO/AVC
    Duration : 1h 33mn
    Bit rate : 2 750 Kbps
    Width : 1 024 pixels
    Height : 426 pixels
    Display aspect ratio : 2.40:1
    Frame rate : 23.976 fps
    Color space : YUV
    Chroma subsampling : 4:2:0
    Bit depth : 8 bits
    Scan type : Progressive
    Bits/(Pixel*Frame) : 0.263
    Stream size : 1.75 GiB (79%)
    Writing library : x264 core 130 r2273 b3065e6
    Encoding settings : cabac=1 / ref=10 / deblock=1:-3:-3 / analyse=0x3:0x133 / me=umh / subme=11 / psy=1 / psy_rd=1.00:0.20 / mixed_ref=1 / me_range=48 / chroma_me=1 / trellis=2 / 8x8dct=1 / cqm=0 / deadzone=21,11 / fast_pskip=0 / chroma_qp_offset=-3 / threads=6 / lookahead_threads=1 / sliced_threads=0 / nr=0 / decimate=0 / interlaced=0 / bluray_compat=0 / constrained_intra=0 / bframes=9 / b_pyramid=2 / b_adapt=2 / b_bias=0 / direct=3 / weightb=1 / open_gop=0 / weightp=2 / keyint=240 / keyint_min=23 / scenecut=40 / intra_refresh=0 / rc=2pass / mbtree=0 / bitrate=2750 / ratetol=1.0 / qcomp=1.00 / qpmin=0 / qpmax=69 / qpstep=4 / cplxblur=20.0 / qblur=0.5 / ip_ratio=1.40 / pb_ratio=1.30 / aq=1:0.60
    Language : English

    Audio #1
    ID : 2
    Format : AC-3
    Format/Info : Audio Coding 3
    Mode extension : CM (complete main)
    Codec ID : A_AC3
    Duration : 1h 33mn
    Bit rate mode : Constant
    Bit rate : 192 Kbps
    Channel(s) : 2 channels
    Channel positions : Front: L R
    Sampling rate : 44.1 KHz
    Bit depth : 16 bits
    Compression mode : Lossy
    Stream size : 128 MiB (6%)
    Title : Профессиональное (многоголосое) Ozz
    Language : Russian

    Audio #2
    ID : 3
    Format : AC-3
    Format/Info : Audio Coding 3
    Mode extension : CM (complete main)
    Codec ID : A_AC3
    Duration : 1h 33mn
    Bit rate mode : Constant
    Bit rate : 448 Kbps
    Channel(s) : 6 channels
    Channel positions : Front: L C R, Side: L R, LFE
    Sampling rate : 48.0 KHz
    Bit depth : 16 bits
    Compression mode : Lossy
    Stream size : 299 MiB (13%)
    Language : English

    Text #1
    ID : 4
    Format : UTF-8
    Codec ID : S_TEXT/UTF8
    Codec ID/Info : UTF-8 Plain Text
    Language : Russian

    Text #2
    ID : 5
    Format : UTF-8
    Codec ID : S_TEXT/UTF8
    Codec ID/Info : UTF-8 Plain Text
    Language : English

    Menu
    00:00:00.000 : en:00:00:00.000
    00:08:12.075 : en:00:08:12.075
    00:16:06.382 : en:00:16:06.382
    00:24:08.530 : en:00:24:08.530
    00:35:18.825 : en:00:35:18.825
    00:46:41.215 : en:00:46:41.215
    00:52:08.459 : en:00:52:08.459
    01:00:42.055 : en:01:00:42.055
    01:06:06.880 : en:01:06:06.880
    01:12:36.894 : en:01:12:36.894
    01:24:58.010 : en:01:24:58.010
    01:30:48.610 : en:01:30:48.610

    Скриншоты для ознакомления


    Релиз подготовил: |
    Размер скачиваемого торрента: 2.21 GB (2375439725 Bytes)

    Повелитель лавин / Prince Avalanche (2013) BDRip-AVC от MediaClub | P торрент скачать бесплатно
    загрузка...
    Рейтинг →
     (голосов: 1, оценка 4/5, голосовать можно 1 раз )

    Другие торренты по теме:

  • Повелитель лавин / Prince Avalanche (2013) BDRip 720p от CINEMANIA | P скачать через торрент бесплатно
  • Повелитель лавин / Prince Avalanche (2013) BDRip 1080p от CINEMANIA | P скачать через торрент бесплатно
  • Повелитель лавин / Prince Avalanche (2013) HDRip | P скачать через торрент бесплатно
  • Повелитель лавин / Prince Avalanche (2013) BDRip 720p | P
  • Повелитель лавин / Prince Avalanche (2013) HDRip от Scarabey скачать через торрент бесплатно
  • Повелитель лавин / Властелин разметки / Prince Avalanche (2013) BDRip от HQCLUB


    • Комментарии (0):

      Информация

      Информация

        Посетители, находящиеся в группе Гости, не могут оставлять комментарии в данной новости.

        ↓ Меню



        ↓ Опрос

        А Вы добавили сайт в закладки?
        Да
        Не


        Top 10 за месяц (Фильмы)