.
Авторизация | Регистрация
Хочешь лучшие торренты? Добавь свой email!
Добавить
» » Прошлое / The Past / Le passe (2013) HDRip от BitTracker | A скачать торрент бесплатно




    Прошлое / The Past / Le passe (2013) HDRip от BitTracker | A скачать торрент бесплатно

    Опубликовал: Админ | Дата: 27-02-2015, 11:09 | Просмотров: 351



    Детально о кино
    Русское название: Прошлое
    Русское название в мировом прокате: The Past / Le passe
    Создали в: 2013
    Категория жанра: драма, детектив
    Главный режиссер: Асгар Фархади / Asghar Farhadi
    Актеры: Беренис Бежо, Тахар Рахим, Али Мосаффа, Полин Бурле, Элиэ Аги, Джинн Джестин, Сабрина Уазани, Бабак Карими, Валерия Кавалли, Александра Клебанска

    Сюжет фильма:
    Ахмад и его французская жена четыре года живут врозь. По просьбе Мари герой приезжает в Париж из Тегерана, чтобы уладить формальности, связанные с их разводом. Во время своего короткого визита Ахмад наблюдает постоянные ссоры жены и их дочери Люси. Его попытка уладить их отношения открывает секрет из прошлого…




    Снималось в: Франция, Италия
    Время просмотра: 02:10:22
    Перевод текста: Авторское (одноголосое) А.Алексеев

    Файл
    Кодек для видео: XviD
    Качество фильма: HDRip (Исх. BDRip 1080p ROUGH)
    Информация о видео: 720x384 (1.88:1), 23.976 fps, XviD build 50 ~1850 kbps avg, 0.28 bit/pixel
    Информация о звуке: 48 kHz, AC3 Dolby Digital, 3/2 (L,C,R,l,r) LFE ch, ~384.00 kbps avg
    Субтитры: нет

    Семпл

    MediaInfo

    Общее
    Полное имя : S:ФильмыПрошлое. 2013. HDRip (AleksSin).avi
    Формат : AVI
    Формат/Информация : Audio Video Interleave
    Профиль формата : OpenDML
    Размер файла : 2,04 Гбайт
    Продолжительность : 2 ч. 10 м.
    Общий поток : 2243 Кбит/сек
    Программа кодирования : VirtualDubMod 1.5.10.3 | www.virtualdub-fr.org || (build 2550/release)
    Библиотека кодирования : VirtualDubMod build 2550/release

    Видео
    Идентификатор : 0
    Формат : MPEG-4 Visual
    Профиль формата : Advanced Simple@L5
    Параметр BVOP формата : 2
    Параметр QPel формата : Нет
    Параметр GMC формата : Без точки перехода
    Параметр матрицы формата : Default (H.263)
    Идентификатор кодека : XVID
    Идентификатор кодека/Подсказка : XviD
    Продолжительность : 2 ч. 10 м.
    Битрейт : 1850 Кбит/сек
    Ширина : 720 пикс.
    Высота : 384 пикс.
    Соотношение сторон : 1,875
    Частота кадров : 23,976 кадр/сек
    Цветовое пространство : YUV
    Подвыборка цветности : 4:2:0
    Битовая глубина : 8 бит
    Тип развёртки : Прогрессивная
    Метод сжатия : С потерями
    Бит/(Пиксели*Кадры) : 0.279
    Размер потока : 1,68 Гбайт (82%)
    Библиотека кодирования : XviD 1.2.1 (UTC 2008-12-04)

    Аудио
    Идентификатор : 1
    Формат : AC-3
    Формат/Информация : Audio Coding 3
    Расширение режима : CM (complete main)
    Идентификатор кодека : 2000
    Продолжительность : 2 ч. 9 м.
    Вид битрейта : Постоянный
    Битрейт : 384 Кбит/сек
    Каналы : 6 каналов
    Расположение каналов : Front: L C R, Side: L R, LFE
    Частота : 48,0 КГц
    Битовая глубина : 16 бит
    Метод сжатия : С потерями
    Размер потока : 356 Мбайт (17%)
    Выравнивание : Разделение по промежуткам
    Продолжительность промежутка : 42 мс. (1,01 видеокадр)
    Время предзагрузки промежутка : 500 ms

    Скриншоты для ознакомления


    Релиз подготовил:
    Залил: AleksSin
    Размер скачиваемого торрента: 2.04 GB (2193524736 Bytes)

    Прошлое / The Past / Le passe (2013) HDRip от BitTracker | A торрент скачать бесплатно
    загрузка...
    Рейтинг →
     (голосов: 1, оценка 4/5, голосовать можно 1 раз )

    Другие торренты по теме:

  • Попутчики / Поездка в прошлое / Forever Lulu (2000) BDRip от MediaClub | P
  • Попутчики / Поездка в прошлое / Forever Lulu (2000) BDRip 720p от MediaClub
  • K-di - Старое В прошлое (2013) MP3
  • Тариф на прошлое (2013) SATRip
  • Прошлое / The Past / Le passe (2013) BDRip 1080p от CINEMANIA | A скачать через торрент бесплатно
  • Что скрывает прошлое / Blind Terror (2001) DVDRip - от NovaLan скачать через торрент бесплатно
  • Прошлое / Le passe (2013) HDRip | A скачать через торрент бесплатно
  • Прошлое / The Past / Le pass (2013) HDRip от Scarabey скачать через торрент бесплатно


    • Комментарии (0):

      Информация

      Информация

        Посетители, находящиеся в группе Гости, не могут оставлять комментарии в данной новости.

        ↓ Меню



        ↓ Опрос

        А Вы добавили сайт в закладки?
        Да
        Не


        Top 10 за месяц (Фильмы)