.
Авторизация | Регистрация
Хочешь лучшие торренты? Добавь свой email!
Добавить
» » Вулкан / Volcano (1997) BDRemux 1080p от MediaClub | D, P, A скачать торрент бесплатно




    Вулкан / Volcano (1997) BDRemux 1080p от MediaClub | D, P, A скачать торрент бесплатно

    Опубликовал: Админ | Дата: 27-02-2015, 11:09 | Просмотров: 289



    Детально о кино
    Русское название: Вулкан
    Русское название в мировом прокате: Volcano
    Создали в: 1997
    Категория жанра: Боевик, фильм-катастрофа, драма, триллер
    Главный режиссер: Мик Джексон
    Актеры: Томми Ли Джонс, Энн Хеч, Гэби Хоффманн, Дон Чидл, Жаклин Ким, Кит Дэвид, Джон Корбетт, Майкл Рисполи, Джон Кэрролл Линч, Марсело Тедфорд

    Сюжет: Лос — Анджелес на своем веку достаточно повидал стихийных бедствий: землетрясений, пожаров, наводнений. Но сейчас городу ангелов предстоит столкнуться с самой страшной из когда — либо переживаемых им катастроф, которая грозит стереть его с лица земли.В одном из самых населенных районов Лос — Анджелеса внезапно пришел в активное действие вулкан. Раскаленная, грозящая смертью лава уже начала выплескиваться на улицы, запруженные автомобилями…Но, как всегда, герой появляется вовремя — на этот раз в облике мужественного офицера службы спасения в случае стихийных бедствий, который возглавляет борьбу со стихией…




    Снималось в: США
    Киностудия: 20th Century Fox
    Время просмотра: 01:43:51
    Перевод текста: Дублированный, профессиональный многоголосый, авторский одноголосый

    Файл
    Качество фильма: Blu-ray Remux 1080p
    Информация о видео: MPEG-4 AVC, 19938 Кбит/с, 1920x1080, 23.976 кадр/с
    Информация о звуке #1: Русский (AC3, 2 ch, 192 Кбит/с) / Дублированный
    Информация о звуке #2: Русский (DTS, 6 ch, 768 Кбит/с) / Профессиональный многоголосый
    Информация о звуке #3: Русский (AC3, 6 ch, 640 Кбит/с) / Авторский одноголосый (Ю. Живов)
    Информация о звуке #4: Английский (TrueHD, 6 ch, 1873 Кбит/с)
    Субтитры: Русские, английские

    Скриншоты для ознакомления


    MI
    Общее
    Уникальный идентификатор : 209711388162175494385378307823701796813 (0x9DC4F1B8032615039EA8A5D34CA327CD)
    Полное имя : D:Mои раздачиVulkan.1997.BDRemux.(1080p)-MediaClub.mkv
    Формат : Matroska
    Версия формата : Version 4 / Version 2
    Размер файла : 17,0 Гбайт
    Продолжительность : 1 ч. 43 м.
    Режим общего битрейта : Переменный
    Общий поток : 23,5 Мбит/сек
    Название фильма : -=MediaClub-kaspr=-
    Дата кодирования : UTC 2013-11-09 15:37:21
    Программа кодирования : mkvmerge v6.1.0 (;Old Devil;) built on Mar 4 2013 09:10:42
    Библиотека кодирования : libebml v1.3.0 libmatroska v1.4.0

    Видео
    Идентификатор : 1
    Формат : AVC
    Формат/Информация : Advanced Video Codec
    Профиль формата : High@L4.1
    Параметр CABAC формата : Да
    Параметр ReFrames формата : 2 кадра
    Идентификатор кодека : V_MPEG4/ISO/AVC
    Продолжительность : 1 ч. 43 м.
    Вид битрейта : Переменный
    Ширина : 1920 пикселей
    Высота : 1080 пикселей
    Соотношение сторон : 16:9
    Режим частоты кадров : Постоянный
    Частота кадров : 23,976 кадра/сек
    Цветовое пространство : YUV
    Субдискретизация насыщенности : 4:2:0
    Битовая глубина : 8 бит
    Тип развёртки : Прогрессивная
    Заголовок : -=MediaClub-kaspr=-
    Default : Да
    Forced : Да

    Аудио #1
    Идентификатор : 2
    Формат : AC-3
    Формат/Информация : Audio Coding 3
    Расширение режима : CM (complete main)
    Параметр Endianness формата : Big
    Идентификатор кодека : A_AC3
    Продолжительность : 1 ч. 43 м.
    Вид битрейта : Постоянный
    Битрейт : 192 Кбит/сек
    Каналы : 2 канала
    Расположение каналов : Front: L R
    Частота : 48,0 КГц
    Битовая глубина : 16 бит
    Метод сжатия : С потерями
    Размер потока : 143 Мбайт (1%)
    Заголовок : DUB
    Язык : Russian
    Default : Да
    Forced : Да

    Аудио #2
    Идентификатор : 3
    Формат : DTS
    Формат/Информация : Digital Theater Systems
    Режим : 16
    Параметр Endianness формата : Big
    Идентификатор кодека : A_DTS
    Продолжительность : 1 ч. 43 м.
    Вид битрейта : Постоянный
    Битрейт : 768 Кбит/сек
    Каналы : 6 каналов
    Расположение каналов : Front: L C R, Side: L R, LFE
    Частота : 48,0 КГц
    Битовая глубина : 16 бит
    Метод сжатия : С потерями
    Размер потока : 571 Мбайт (3%)
    Заголовок : MVO
    Язык : Russian
    Default : Нет
    Forced : Нет

    Аудио #3
    Идентификатор : 4
    Формат : AC-3
    Формат/Информация : Audio Coding 3
    Расширение режима : CM (complete main)
    Параметр Endianness формата : Big
    Идентификатор кодека : A_AC3
    Продолжительность : 1 ч. 43 м.
    Вид битрейта : Постоянный
    Битрейт : 640 Кбит/сек
    Каналы : 6 каналов
    Расположение каналов : Front: L C R, Side: L R, LFE
    Частота : 48,0 КГц
    Битовая глубина : 16 бит
    Метод сжатия : С потерями
    Размер потока : 475 Мбайт (3%)
    Заголовок : Живов
    Язык : Russian
    Default : Нет
    Forced : Нет

    Аудио #4
    Идентификатор : 5
    Формат : TrueHD
    Идентификатор кодека : A_TRUEHD
    Продолжительность : 1 ч. 43 м.
    Вид битрейта : Переменный
    Максимальный битрейт : 2895 Кбит/сек
    Каналы : 6 каналов
    Расположение каналов : Front: L C R, Side: L R, LFE
    Частота : 48,0 КГц
    Метод сжатия : Без потерь
    Язык : English
    Default : Нет
    Forced : Нет

    Текст #1
    Идентификатор : 6
    Формат : UTF-8
    Идентификатор кодека : S_TEXT/UTF8
    Идентификатор кодека/Информация : UTF-8 Plain Text
    Язык : Russian
    Default : Нет
    Forced : Нет

    Текст #2
    Идентификатор : 7
    Формат : UTF-8
    Идентификатор кодека : S_TEXT/UTF8
    Идентификатор кодека/Информация : UTF-8 Plain Text
    Язык : English
    Default : Нет
    Forced : Нет

    Меню
    00:00:00.000 : en:Chapter 01
    00:11:41.742 : en:Chapter 02
    00:21:57.357 : en:Chapter 03
    00:30:05.553 : en:Chapter 04
    00:42:56.115 : en:Chapter 05
    00:53:30.749 : en:Chapter 06
    01:02:27.827 : en:Chapter 07
    01:10:18.839 : en:Chapter 08
    01:21:46.818 : en:Chapter 09
    01:33:04.662 : en:Chapter 10

    Релиз:
    Залил: kaspr
    Размер скачиваемого торрента: 17.03 GB (18290844260 Bytes)

    Вулкан / Volcano (1997) BDRemux 1080p от MediaClub | D, P, A торрент скачать бесплатно
    загрузка...
    Рейтинг →
     (голосов: 1, оценка 5/5, голосовать можно 1 раз )

    Другие торренты по теме:

  • VA - Вулкан удовольствий зимний. Сборник 50 / 50 (2013) MP3
  • VA - Вулкан удовольствий зимний. Зарубежный выпуск (2013) MP3
  • Сборник - Зимний вулкан удовольствий. Русский выпуск (2013) MP3
  • Вулкан / Volcano (1997) BDRip 720p от MediaClub | D, P, A скачать через торрент бесплатно
  • Вулкан / Volcano (1997) BDRip от MediaClub | D, P, A
  • Вулкан / Volcano (1997) BDRip-AVC от MediaClub | D, P, A
  • Вулкан / Volcano (1997) BDRip от Rulya74 | D, A
  • Вулкан / Volcano (1997) BDRip 1080p | D, P, A скачать через торрент бесплатно


    • Комментарии (0):

      Информация

      Информация

        Посетители, находящиеся в группе Гости, не могут оставлять комментарии в данной новости.

        ↓ Меню



        ↓ Опрос

        А Вы добавили сайт в закладки?
        Да
        Не


        Top 10 за месяц (Фильмы)