.
Авторизация | Регистрация
Хочешь лучшие торренты? Добавь свой email!
Добавить
» » Однажды в Ростове (2012) DVDRip от New-Team | лицензия скачать через торрент бесплатно




    Однажды в Ростове (2012) DVDRip от New-Team | лицензия скачать через торрент бесплатно

    Опубликовал: Админ | Дата: 27-02-2015, 11:09 | Просмотров: 446


    Снималось в: Россия
    Создали в: 2012
    Категория жанра: драма, криминал
    Время просмотра: 24 серии ~ 44 минуты

    Субтитры: нет
    Оригинальная аудиодорожка: русский

    Актеры: Владимир Вдовиченков, Сергей Жигунов, Алёна Бабенко, Виктор Раков, Юрий Беляев, Кирилл Плетнёв, Константин Лавроненко, Андрей Ильин, Екатерина Климова, Богдан Ступка...

    Главный режиссеры: Константин Худяков

    Сюжет: СССР, 2 июня 1962 года. В центре повествования история жизни и преступной деятельности шайки бандитов, известных как фантомасы Толстопятовы, которые в эти неспокойные времена нагоняли страх на всех жителей города. Кроме этого сериал повествует о событиях, связанных с расстрелом голодного бунта, произошедшего в Новочеркасске, и о событиях, последовавших за ним и оказавших влияние на всю страну. Один из главных героев сериала - талантливый художник, гениальный конструктор Вячеслав Толстопятов (Владимир Вдовиченков). После того, как он волею судьбы оказывается невольным свидетелем расстрела мирной демонстрации в Новочеркасске, он пересматривает свои убеждения и становится бандитом.
    После снижения заработной платы и повышения цен жители Новочеркасска вышли на мирную демонстрацию. Но страсти быстро накалились и привели к трагедии - расстрелу митингующих рабочих, несмотря на протесты генерала Шапошникова (Юрий Беляев). Властям удается замять трагедию, у свидетелей берут подписку о неразглашении, а все несогласные получают тюремные сроки. На митинге присутствовал и Вячеслав Толстопятов. Увиденное перевернуло его представление о жизни... Вместе со своим старшим братом, киномехаником Владимиром (Виктор Раков), его женой Тамарой (Алена Бабенко) и другом Александром (Михаил Евланов) он организует банду. Они грабят государственные сберкассы, скрывая свои лица под чулками. За необычный вид бандиты получают в народе прозвище - Фантомасы. По следу шайки идут капитан уголовного розыска Павел Карпухин (Кирилл Плетнев) и офицер КГБ Сергей Колесников (Сергей Жигунов). Дело Фантомасов берут на контроль на самом верху. Когда в дело примешивается политика, в столкновение органов госбезопасности и группировки оказываются втянуты врачи, профессора, уголовники, диссиденты.
    Несколько лет, с 1968 по 1973, банда Толстопятовых держала в страхе Ростов. Успех им обеспечивал талант Вячеслава, который не только продумывал каждую операцию до мелочей, но даже создал гибрид пистолета и пулемета для своих напарников.
    Бандитов долго не могут поймать, они всегда опережают милиционеров, лучше оснащены технически и не привлекают внимания, т.к. почти не тратят свою добычу.




    Качество фильма: DVDRip (4 x DVD9 R5)
    Тип видео: AVI

    Информация о видео: 720x400 (16:9), 25.000 fps, XViD ~ 2000 kbps avg, 0.278 bit/pixel
    Информация о звуке: 48 kHz, АС3 2 ch, 192 kbps, русский

    Раздача от:
    MediaInfo

    Общее
    Полное имя : Odnajdy.v.Rostove.2012.O.DVDRip_New-Team_by_avproh1.avi
    Формат : AVI
    Формат/Информация : Audio Video Interleave
    Размер файла : 704 Мбайт
    Продолжительность : 44 м.
    Общий поток : 2201 Кбит/сек
    Программа кодирования : VirtualDubMod 1.5.10.3 | www.virtualdub-fr.org || (build 2550/release)
    Библиотека кодирования : VirtualDubMod build 2550/release

    Видео
    Идентификатор : 0
    Формат : MPEG-4 Visual
    Профиль формата : Advanced Simple@L5
    Параметр BVOP формата : 1
    Параметр QPel формата : Нет
    Параметр GMC формата : Без точки перехода
    Параметр матрицы формата : Выборочная
    Идентификатор кодека : XVID
    Идентификатор кодека/Подсказка : XviD
    Продолжительность : 44 м.
    Битрейт : 2000 Кбит/сек
    Ширина : 720 пикселей
    Высота : 400 пикселей
    Соотношение сторон : 16:9
    Частота кадров : 25,000 кадров/сек
    Цветовое пространство : YUV
    Субдискретизация насыщенности : 4:2:0
    Битовая глубина : 8 бит
    Тип развёртки : Прогрессивная
    Метод сжатия : С потерями
    Бит/(Пиксели*Кадры) : 0.278
    Размер потока : 639 Мбайт (91%)
    Библиотека кодирования : XviD 73

    Аудио
    Идентификатор : 1
    Формат : AC-3
    Формат/Информация : Audio Coding 3
    Расширение режима : CM (complete main)
    Параметр Endianness формата : Big
    Идентификатор кодека : 2000
    Продолжительность : 44 м.
    Вид битрейта : Постоянный
    Битрейт : 192 Кбит/сек
    Каналы : 2 канала
    Расположение каналов : Front: L R
    Частота : 48,0 КГц
    Битовая глубина : 16 бит
    Метод сжатия : С потерями
    Размер потока : 61,4 Мбайт (9%)
    Выравнивание : Разделение по промежуткам
    Продолжительность промежутка : 40 мс. (1,00 видеокадр)
    Время предзагрузки промежутка : 500 мс.

    Скриншоты для ознакомления:



    Сравнение:

    http://alt.rutor.org/torrent/194213/

    http://screenshotcomparison.com/comparison/47933 перекроп у конкурента, а картинку сами видите.

    Залил: avproh
    Размер скачиваемого торрента: 16.58 GB (17798225920 Bytes)

    Однажды в Ростове (2012) DVDRip от New-Team | лицензия скачать через торрент бесплатно
    загрузка...
    Рейтинг →
     (голосов: 1, оценка 4/5, голосовать можно 1 раз )

    Другие торренты по теме:

  • Однажды в сказке / Once Upon A Time (2013) WEB-DL 720p | Кубик в кубе скачать через торрент бесплатно
  • Однажды в сказке / Once Upon A Time (2013) WEB-DLRip | Кубик в кубе скачать через торрент бесплатно
  • Однажды в сказке / Once Upon A Time (2013) WEB-DL 1080p | Кубик в кубе скачать через торрент бесплатно
  • В Некотором Царстве / Однажды в сказке / Once Upon a Time (2011-2014) WEB-DLRip скачать через торрент бесплатно
  • Однажды в Сказке / В Некотором Царстве / Давным-давно / Resurrection (2014) WEB-DLRip | To4ka от Generalfilm скачать через торрент бесплатно
  • Мир в фокусе: Однажды в Африке (2014) WEB-DL 720p
  • Мир в фокусе: Однажды в Африке (2014) WEB-DLRip скачать через торрент бесплатно
  • Однажды в сказке / Once Upon a Time (2014) WEB-DLRip | Кубик в Кубе


    • Комментарии (0):

      Информация

      Информация

        Посетители, находящиеся в группе Гости, не могут оставлять комментарии в данной новости.

        ↓ Меню



        ↓ Опрос

        А Вы добавили сайт в закладки?
        Да
        Не


        Top 10 за месяц (Фильмы)