.
Авторизация | Регистрация
Хочешь лучшие торренты? Добавь свой email!
Добавить
» » Мы - Миллеры / Were The Millers (2013) BDRip от New-Team | Extended Cut | P скачать через торрент бесплатно




    Мы - Миллеры / Were The Millers (2013) BDRip от New-Team | Extended Cut | P скачать через торрент бесплатно

    Опубликовал: Админ | Дата: 27-02-2015, 11:09 | Просмотров: 265

    Мы – Миллеры
    We;re the Millers



    Снималось в: США
    Категория жанра: комедия, криминал
    Создали в: 2013
    Время просмотра: 01:58:43

    Перевод текста: Профессиональный (многоголосый закадровый) - BaibaKo
    Субтитры подготовлены: нет
    Главный режиссер: Роусон Маршалл Тёрбер / Rawson Marshall Thurber

    Актеры: Дженнифер Энистон, Джейсон Судейкис, Уилл Поултер, Эмма Робертс, Эд Хелмс, Ник Офферман, Кэтрин Хан, Молли С. Куинн, Томер Сисле, Мэттью Уиллиг

    Сюжет: Дэвид Берк — мелкий торговец наркотиками. Среди его клиентов — повара и скучающие домохозяйки. Детям он наркотики не продаёт и поэтому считает себя принципиальным человеком. Дэвид действительно хорошо относится к детям, но это не остается безнаказанным — он пытается помочь подросткам, попавшим в беду, и на него нападают хулиганы-панки. Они отбирают у него наркотики и деньги, и наш герой оказывается в отчаянном положении. Ведь ему нечем расплатиться с его поставщиком Брэдом. Единственный выход — подрядиться на доставку крупной партии наркотиков через границу.

    Автор рипа: _Flash



    Раздача от:


    Качество фильма видео: BDRip
    Тип видео видео: AVI

    Информация о видео: 720x304, 23.976 fps, XviD build 73 ~1364 kbps avg, 0.26 bit/pixel
    Информация о звуке: 48 kHz, AC3 Dolby Digital, 3/2 (L,C,R,l,r) LFE ch, ~384 kbps

    Отчёт MediaInfo

    Общее
    Полное имя : D:We;re.the.Millers.2013.(Extended Cut).BDRip.By_Flash.avi
    Формат : AVI
    Формат/Информация : Audio Video Interleave
    Размер файла : 1,46 Гбайт
    Продолжительность : 1 ч. 58 м.
    Общий поток : 1757 Кбит/сек
    Программа кодирования : VirtualDubMod 1.5.10.3 | www.virtualdub-fr.org || (build 2550/release)
    Библиотека кодирования : VirtualDubMod build 2550/release

    Видео
    Идентификатор : 0
    Формат : MPEG-4 Visual
    Профиль формата : Advanced Simple@L5
    Параметр BVOP формата : 1
    Параметр QPel формата : Нет
    Параметр GMC формата : Без точки перехода
    Параметр матрицы формата : Выборочная
    Идентификатор кодека : XVID
    Идентификатор кодека/Подсказка : XviD
    Продолжительность : 1 ч. 58 м.
    Битрейт : 1364 Кбит/сек
    Ширина : 720 пикселей
    Высота : 304 пикселя
    Соотношение сторон : 2,35:1
    Частота кадров : 23,976 кадра/сек
    Цветовое пространство : YUV
    Субдискретизация насыщенности : 4:2:0
    Битовая глубина : 8 бит
    Тип развёртки : Прогрессивная
    Метод сжатия : С потерями
    Бит/(Пиксели*Кадры) : 0.260
    Размер потока : 1,13 Гбайт (78%)
    Библиотека кодирования : XviD 73

    Аудио
    Идентификатор : 1
    Формат : AC-3
    Формат/Информация : Audio Coding 3
    Расширение режима : CM (complete main)
    Параметр Endianness формата : Big
    Идентификатор кодека : 2000
    Продолжительность : 1 ч. 58 м.
    Вид битрейта : Постоянный
    Битрейт : 384 Кбит/сек
    Каналы : 6 каналов
    Расположение каналов : Front: L C R, Side: L R, LFE
    Частота : 48,0 КГц
    Битовая глубина : 16 бит
    Метод сжатия : С потерями
    Размер потока : 326 Мбайт (22%)
    Выравнивание : Разделение по промежуткам
    Продолжительность промежутка : 42 мс. (1,00 видеокадр)
    Время предзагрузки промежутка : 500 мс.



    Скриншоты для ознакомления



    Залил: Flash_
    Размер скачиваемого торрента: 1.46 GB (1564465152 Bytes)

    Мы - Миллеры / Were The Millers (2013) BDRip от New-Team | Extended Cut | P скачать через торрент бесплатно
    загрузка...
    Рейтинг →
     (голосов: 1, оценка 3/5, голосовать можно 1 раз )

    Другие торренты по теме:

  • Что мы делаем в темноте / Чем мы занимаемся в тени / What We Do in the Shadows скачать через торрент бесплатно
  • Самое большое простое число - Мы - огромное животное, и мы вас всех съедим! (2016) MP3
  • Калбазов Константин - Росич 3. Мы наш, мы новый… (2017) MP3
  • Мы молоды. Мы сильны. / Wir sind jung. Wir sind stark. (2014) HDRip-AVC | Sub
  • 5sta Family - Вместе Мы (2012) HD 720p
  • Когда мы встретились / Jab We Met (2007) BDRip-AVC от Тorrent-Хzona | P
  • Это были мы 2 / We were there: Part 2 / Bokura ga ita Kouhen (2012) DVDRip
  • Прячься, бабушка, мы уже едем! / To Grandmothers House We Go (1992) DVDRip


    • Комментарии (0):

      Информация

      Информация

        Посетители, находящиеся в группе Гости, не могут оставлять комментарии в данной новости.

        ↓ Меню



        ↓ Опрос

        А Вы добавили сайт в закладки?
        Да
        Не


        Top 10 за месяц (Фильмы)