.
Авторизация | Регистрация
Хочешь лучшие торренты? Добавь свой email!
Добавить
» » Тихоокеанский рубеж / Pacific Rim (2013) BDRip-AVC от BuR | R.G. FireBit-Films | iTunes скачать торрент бесплатно




    Тихоокеанский рубеж / Pacific Rim (2013) BDRip-AVC от BuR | R.G. FireBit-Films | iTunes скачать торрент бесплатно

    Опубликовал: Админ | Дата: 27-02-2015, 11:09 | Просмотров: 302



    Детально о кино
    Русское название: Тихоокеанский рубеж
    Русское название в мировом прокате: Pacific Rim
    Создали в: 2013
    Категория жанра: Фантастика, фэнтези, боевик, приключения
    Главный режиссер: Гильермо дель Торо
    Актеры: Чарли Ханнэм, Идрис Эльба, Ринко Кикучи, Чарли Дэй, Роберт Казински, Макс Мартини, Рон Перлман, Клифтон Коллинз мл., Диего Клаттенхофф, Берн Горман

    Сюжет фильма: Когда из морских глубин поднялись легионы чудовищ, известных как Кайдзу, началась война, которой суждено было забрать миллионы жизней и свести человеческие ресурсы почти к нулю всего за несколько лет. Чтобы сражаться с пришельцами, было создано специальное оружие: огромные роботы, названные Джегерами, они управлялись одновременно двумя пилотами, чьи сознания соединены с помощью нейронной связи. Но даже Джегеры оказываются почти бессильны перед лицом безжалостных Кайдзу. На грани поражения у защитников человечества нет выбора, кроме как обратиться к двум весьма сомнительным героям — никому не нужному бывшему пилоту и неопытному стажеру — которые объединились, чтобы повести в бой некогда легендарного, но сейчас устаревшего Джегера. Вместе они оказываются единственной надеждой человечества, последним препятствием перед надвигающимся апокалипсисом.



    Снималось в: США, Legendary Pictures
    Время просмотра: 02:11:16
    Перевод текста: Дублированный - iTunes Russia

    Файл
    Качество фильма: BDRip-AVC
    Тип видео: MKV
    Информация о видео: MPEG4/AVC, 1024x560 (1,85:1), 23,976 fps, 3299 Кbps, 0.240 bit/pixel
    Информация о звуке 1: 48 kHz, AC3 Dolby Digital, 3/2 (L,C,R,l,r) LFE ch, 384 kbps | RUS - iTunes
    Информация о звуке 2: 48 kHz, AC3 Dolby Digital, 3/2 (L,C,R,l,r) LFE ch, 448 kbps | Сербин
    Информация о звуке 3: 48 kHz, AC3 Dolby Digital, 2 (ch), 192 kbps | UKR
    Информация о звуке 4: 48 kHz, AC3 Dolby Digital, 3/2 (L,C,R,l,r) LFE ch, 448 kbps | ENG
    Субтитры: Русский (форсированные, полные - iTunes), Украинский (форсированные, полные - iTunes), Английский (полные, SDH, SDH Colored)
    Навигация по главам: Есть

    MediaInfo:
    Общее
    Уникальный идентификатор : 219756542006168671396964768770715426733 (0xA553920A7BCDC243A777C329E8F21FAD)
    Полное имя : Pacific.Rim (2013) BDRip-AVC.mkv
    Формат : Matroska
    Версия формата : Version 2
    Размер файла : 4,37 Гбайт
    Продолжительность : 2 ч. 11 м.
    Общий поток : 4763 Кбит/сек
    Дата кодирования : UTC 2013-11-07 11:05:42
    Программа кодирования : mkvmerge v5.8.0 (;No Sleep / Pillow;) built on Sep 2 2012 15:37:04
    Библиотека кодирования : libebml v1.2.3 libmatroska v1.3.0

    Видео
    Идентификатор : 1
    Формат : AVC
    Формат/Информация : Advanced Video Codec
    Профиль формата : High@L4.1
    Параметр CABAC формата : Да
    Параметр ReFrames формата : 11 кадров
    Идентификатор кодека : V_MPEG4/ISO/AVC
    Продолжительность : 2 ч. 11 м.
    Битрейт : 3299 Кбит/сек
    Ширина : 1024 пикселя
    Высота : 560 пикселей
    Соотношение сторон : 1,85:1
    Режим частоты кадров : Постоянный
    Частота кадров : 23,976 кадра/сек
    Цветовое пространство : YUV
    Субдискретизация насыщенности : 4:2:0
    Битовая глубина : 8 бит
    Тип развёртки : Прогрессивная
    Бит/(Пиксели*Кадры) : 0.240
    Размер потока : 2,93 Гбайт (67%)
    Библиотека кодирования : x264 core 140 r2377 1ca7bb9
    Настройки программы : cabac=1 / ref=11 / deblock=1:-2:-2 / analyse=0x3:0x113 / me=umh / subme=10 / psy=1 / psy_rd=1.00:0.10 / mixed_ref=1 / me_range=32 / chroma_me=1 / trellis=2 / 8x8dct=1 / cqm=0 / deadzone=21,11 / fast_pskip=0 / chroma_qp_offset=-3 / threads=6 / lookahead_threads=1 / sliced_threads=0 / nr=0 / decimate=0 / interlaced=0 / bluray_compat=0 / constrained_intra=0 / bframes=9 / b_pyramid=2 / b_adapt=2 / b_bias=0 / direct=3 / weightb=1 / open_gop=0 / weightp=2 / keyint=240 / keyint_min=23 / scenecut=40 / intra_refresh=0 / rc=2pass / mbtree=0 / bitrate=3299 / ratetol=2.0 / qcomp=0.60 / qpmin=0 / qpmax=69 / qpstep=4 / cplxblur=20.0 / qblur=0.5 / ip_ratio=1.40 / pb_ratio=1.30 / aq=1:0.70
    Язык : English
    Default : Да
    Forced : Нет

    Аудио #1
    Идентификатор : 2
    Формат : AC-3
    Формат/Информация : Audio Coding 3
    Расширение режима : CM (complete main)
    Параметр Endianness формата : Big
    Идентификатор кодека : A_AC3
    Продолжительность : 2 ч. 11 м.
    Вид битрейта : Постоянный
    Битрейт : 384 Кбит/сек
    Каналы : 6 каналов
    Расположение каналов : Front: L C R, Side: L R, LFE
    Частота : 48,0 КГц
    Битовая глубина : 16 бит
    Метод сжатия : С потерями
    Размер потока : 361 Мбайт (8%)
    Заголовок : iTunes
    Язык : Russian
    Default : Да
    Forced : Нет

    Аудио #2
    Идентификатор : 3
    Формат : AC-3
    Формат/Информация : Audio Coding 3
    Расширение режима : CM (complete main)
    Параметр Endianness формата : Big
    Идентификатор кодека : A_AC3
    Продолжительность : 2 ч. 11 м.
    Вид битрейта : Постоянный
    Битрейт : 448 Кбит/сек
    Каналы : 6 каналов
    Расположение каналов : Front: L C R, Side: L R, LFE
    Частота : 48,0 КГц
    Битовая глубина : 16 бит
    Метод сжатия : С потерями
    Размер потока : 421 Мбайт (9%)
    Заголовок : Serbin
    Язык : Russian
    Default : Нет
    Forced : Нет

    Аудио #3
    Идентификатор : 4
    Формат : AC-3
    Формат/Информация : Audio Coding 3
    Расширение режима : CM (complete main)
    Параметр Endianness формата : Big
    Идентификатор кодека : A_AC3
    Продолжительность : 2 ч. 11 м.
    Вид битрейта : Постоянный
    Битрейт : 192 Кбит/сек
    Каналы : 2 канала
    Расположение каналов : Front: L R
    Частота : 48,0 КГц
    Битовая глубина : 16 бит
    Метод сжатия : С потерями
    Размер потока : 180 Мбайт (4%)
    Заголовок : UKR
    Язык : Ukrainian
    Default : Нет
    Forced : Нет

    Аудио #4
    Идентификатор : 5
    Формат : AC-3
    Формат/Информация : Audio Coding 3
    Расширение режима : CM (complete main)
    Параметр Endianness формата : Big
    Идентификатор кодека : A_AC3
    Продолжительность : 2 ч. 11 м.
    Вид битрейта : Постоянный
    Битрейт : 448 Кбит/сек
    Каналы : 6 каналов
    Расположение каналов : Front: L C R, Side: L R, LFE
    Частота : 48,0 КГц
    Битовая глубина : 16 бит
    Метод сжатия : С потерями
    Размер потока : 421 Мбайт (9%)
    Заголовок : ENG
    Язык : English
    Default : Нет
    Forced : Нет

    Текст #1
    Идентификатор : 6
    Формат : UTF-8
    Идентификатор кодека : S_TEXT/UTF8
    Идентификатор кодека/Информация : UTF-8 Plain Text
    Заголовок : Forced
    Язык : Russian
    Default : Да
    Forced : Нет

    Текст #2
    Идентификатор : 7
    Формат : UTF-8
    Идентификатор кодека : S_TEXT/UTF8
    Идентификатор кодека/Информация : UTF-8 Plain Text
    Заголовок : Full
    Язык : Russian
    Default : Нет
    Forced : Нет

    Текст #3
    Идентификатор : 8
    Формат : UTF-8
    Идентификатор кодека : S_TEXT/UTF8
    Идентификатор кодека/Информация : UTF-8 Plain Text
    Заголовок : Forced
    Язык : Ukrainian
    Default : Нет
    Forced : Нет

    Текст #4
    Идентификатор : 9
    Формат : UTF-8
    Идентификатор кодека : S_TEXT/UTF8
    Идентификатор кодека/Информация : UTF-8 Plain Text
    Заголовок : Full
    Язык : Ukrainian
    Default : Нет
    Forced : Нет

    Текст #5
    Идентификатор : 10
    Формат : UTF-8
    Идентификатор кодека : S_TEXT/UTF8
    Идентификатор кодека/Информация : UTF-8 Plain Text
    Заголовок : Full
    Язык : English
    Default : Нет
    Forced : Нет

    Текст #6
    Идентификатор : 11
    Формат : UTF-8
    Идентификатор кодека : S_TEXT/UTF8
    Идентификатор кодека/Информация : UTF-8 Plain Text
    Заголовок : SDH
    Язык : English
    Default : Нет
    Forced : Нет

    Текст #7
    Идентификатор : 12
    Формат : UTF-8
    Идентификатор кодека : S_TEXT/UTF8
    Идентификатор кодека/Информация : UTF-8 Plain Text
    Заголовок : SDH Colored
    Язык : English
    Default : Нет
    Forced : Нет

    Меню
    00:00:00.000 : en:Chapter 00
    00:09:09.131 : en:Chapter 01
    00:18:35.823 : en:Chapter 02
    00:23:04.341 : en:Chapter 03
    00:33:00.395 : en:Chapter 04
    00:42:44.895 : en:Chapter 05
    00:50:01.665 : en:Chapter 06
    01:01:09.666 : en:Chapter 07
    01:14:45.105 : en:Chapter 08
    01:22:21.311 : en:Chapter 09
    01:32:09.941 : en:Chapter 10
    01:41:55.609 : en:Chapter 11
    01:51:37.857 : en:Chapter 12
    01:59:21.028 : en:Chapter 13
    02:02:17.830 : en:Chapter 14

    Скриншоты для ознакомления:



    Релиз подготовил: Релиз группа:
    Размер скачиваемого торрента: 4.37 GB (4690636698 Bytes)

    Тихоокеанский рубеж / Pacific Rim (2013) BDRip-AVC от BuR | R.G. FireBit-Films | iTunes торрент скачать бесплатно
    загрузка...
    Рейтинг →
     (голосов: 1, оценка 4/5, голосовать можно 1 раз )

    Другие торренты по теме:

  • Тихоокеанский рубеж / Pacific Rim (2013) HDRip 1080p | Трейлер
  • Ramin Djawadi - Тихоокеанский рубеж / Pacific Rim (2013) MP3
  • Тихоокеанский рубеж / Pacific Rim (2013) TS*PROPER*
  • Тихоокеанский рубеж / Pacific Rim (2013) WEB-DLRip 1080p | Звук с TS
  • Тихоокеанский рубеж / Pacific Rim (2013) WEB-DL 720p | Звук с TS
  • Тихоокеанский рубеж / Pacific Rim (2013) WEB-DLRip | Звук с TS
  • Тихоокеанский рубеж / Pacific Rim (2013) BDRip от Youtracker скачать через торрент бесплатно
  • Тихоокеанский рубеж / Pacific Rim (2013) HDRip от Scarabey | D скачать через торрент бесплатно


    • Комментарии (0):

      Информация

      Информация

        Посетители, находящиеся в группе Гости, не могут оставлять комментарии в данной новости.

        ↓ Меню



        ↓ Опрос

        А Вы добавили сайт в закладки?
        Да
        Не


        Top 10 за месяц (Фильмы)