.
Авторизация | Регистрация
Хочешь лучшие торренты? Добавь свой email!
Добавить
» » Пепел (2013) ] WEB-DLRip-AVC 1080p скачать через торрент бесплатно




    Пепел (2013) ] WEB-DLRip-AVC 1080p скачать через торрент бесплатно

    Опубликовал: Админ | Дата: 27-02-2015, 11:09 | Просмотров: 584


    Пепел





    Создали в: 2013
    Снималось в:Снималось в: РОССИЯ , WeiT Media
    Категория жанра: Детектив, исторический фильм, сага
    Время просмотра: 01:28:00
    Серия: 1-10
    Количество серий в сезон любимого сериалае: 10
    Перевод текста:НЕ ТРЕБУЕТСЯ
    Субтитры : отсутствуют




    Главный режиссер: Вадим Перельман


    Актеры: Владимир Машков, Евгений Миронов, Елена Лядова, Сергей Гармаш, Чулпан Хаматова, Андрей Смоляков, Пётр Мамонов, Владимир Гостюхин, Ирина Розанова, Сергей Чонишвили, Сергей Фролов, Юлия Марченко, Александр Стекольников, Юрий Архангельский, Александр Дьяченко, Константин Балакирев, Карина Андоленко, Фархад Махмудов, Алексей Телеш, Олег Новиков (IV), Владимир Бирюков, Николай Смирнов (V), Лена Петрова



    СССР, 1938 год. В купе поезда встречаются вор Сенька Пепел (Евгений Миронов) и капитан Красной армии Игорь Петров (Владимир Машков), которому грозит арест. Неожиданно перед красноармейцем открывается фантастический шанс избежать верной смерти: он меняется с Пеплом одеждой, документами и забирает воровской общак. Однако Петров изменил не только свою жизнь, но и судьбу любимой женщины Риты (Елена Лядова), которой предстоят поиски мужа, мучительное ожидание и встреча с Пеплом, которого все теперь принимают за Петрова. Основное действие картины разворачивается в 1948-м году, когда бывший вор, уже ставший полковником, вынужден участвовать в поимке бывшего капитана, ставшего опасным преступником. Спустя 10 лет им предстоит вновь встретиться и разобраться в том, как и почему изменились их судьбы.


    Качество фильма : WEB-DLRip-AVC 1080p
    Тип видео: MPEG-4
    Информация о видео кодек: H264
    Информация о видео: 4137Кбит/сек,1920х1080(16.9),в 25.000кадр/сек,AVC(Baseline@L4.0)(1Ref Frames)
    Информация о звуке кодек: AAC
    Информация о звуке Russian Dolby Digital 5.1:201Кбит/сек,44.1КГц,6каналов,AAC,(Version4)(LC)


    Доп. информация:

    Звуковая дорожка сделана путем наложения чистого голоса озвучивателей на центральный канал оригинальной дорожки. Качество идентично звуковой дорожке.



    MediaInfo

    General
    Полное имя : D:С Е Р И А Л ЫПепелPEPEL_2013_RUSRussia_DD5.1_x264_Nikolai.Baranov_WEB-DLRip-AVC_(1080p)PEPEL_1_FILM_2013_RUSRussia_DD5.1_x264_Nikolai.Baranov_WEB-DLRip-AVC_(1080p).mp4
    Формат : MPEG-4
    Профиль формата : Base Media
    Идентификатор кодека : isom
    Размер файла : 2.65 GiB
    Продолжительность : 1h 27mn
    Режим общего битрейта : Variable
    Общий поток : 4 341 Kbps
    Дата кодирования : UTC 2013-10-31 19:34:09
    Дата пометки : UTC 2013-10-31 19:34:09
    Программа кодирования : Lavf51.12.1

    Video
    Идентификатор : 1
    Формат : AVC
    Формат/Информация : Advanced Video Codec
    Профиль формата : Baseline@L4.0
    Параметр CABAC формата : No
    Параметр ReFrames формата : 1 frame
    Параметр GOP формата : M=1, N=12
    Идентификатор кодека : avc1
    Идентификатор кодека/Информация : Advanced Video Coding
    Продолжительность : 1h 27mn
    Вид битрейта : Variable
    Битрейт : 4 137 Kbps
    Максимальный битрейт : 6 000 Kbps
    Ширина : 1 920 pixels
    Высота : 1 080 pixels
    Соотношение сторон : 16:9
    Режим частоты кадров : Constant
    Частота кадров : 25.000 fps
    Частота кадров в оригинале : 24.000 fps
    Цветовое пространство : YUV
    Субдискретизация насыщенности : 4:2:0
    Битовая глубина : 8 bits
    Тип развёртки : Progressive
    Бит/(Пиксели*Кадры) : 0.080
    Размер потока : 2.52 GiB (95%)
    Язык : Russian
    Дата кодирования : UTC 2013-10-31 19:34:09
    Дата пометки : UTC 2013-10-31 19:34:09

    Audio
    Идентификатор : 2
    Формат : AAC
    Формат/Информация : Advanced Audio Codec
    Профиль формата : LC
    Идентификатор кодека : 40
    Продолжительность : 1h 27mn
    Вид битрейта : Variable
    Битрейт : 201 Kbps
    Каналы : 6 channels
    Расположение каналов : Front: L C R, Side: L R, LFE
    Частота : 44.1 KHz
    Метод сжатия : Lossy
    Размер потока : 126 MiB (5%)
    Дата кодирования : UTC 2013-10-31 19:34:09
    Дата пометки : UTC 2013-10-31 19:34:09



    Скриншоты для ознакомления

    align=center
    /align






    Как закачать отдельный файл

    1. Открыть торрент
    2. Снять галки с тех файлов торрента, которые мы не хотим закачивать. Оставляем только на нужных нам файлах (файле).
    3. Нажать О.К.

    В клиенте utorrent

    Инструкция

    1) Открыть торрент


    2) Снять галки с тех файлов торрента, которые мы не хотим закачивать:

    * либо вручную, снимая с каждого файла галку( скрин №1)
    * либо, нажав кнопку Снять метки (Select None), сняв сразу со всех файлов(скрин №2)
    №1

    №2

    Оставляем только на нужных нам файлах (файле).

    3)Нажать О.К




    Релиз подготовил: Nikolai.Baranov









    Залил: NIKOLAI.BARANOV
    Размер скачиваемого торрента: 13.23 GB (14209267687 Bytes)

    Пепел (2013) ] WEB-DLRip-AVC 1080p скачать через торрент бесплатно
    загрузка...
    Рейтинг →
     (голосов: 1, оценка 5/5, голосовать можно 1 раз )

    Другие торренты по теме:

  • Антон Евтушенко - Пепел (2012) MP3
  • Алексей Глызин - Пепел любви (1994) FLAC от Underverse
  • Пепел (2013) SATRip от GeneralFilm
  • Пепел (2013) WEB-DL 1080p
  • Пепел (2013) DVB
  • Пепел (2013) WEB-DL 720p
  • Пепел (2013) IPTVRip
  • Пепел (2013) WEB-DLRip-AVC от ExKinoRay скачать через торрент бесплатно


    • Комментарии (0):

      Информация

      Информация

        Посетители, находящиеся в группе Гости, не могут оставлять комментарии в данной новости.

        ↓ Меню



        ↓ Опрос

        А Вы добавили сайт в закладки?
        Да
        Не


        Top 10 за месяц (Фильмы)