.
Авторизация | Регистрация
Хочешь лучшие торренты? Добавь свой email!
Добавить
» » Звонок 0: Рождение / Ringu 0: Basudei (2000) BDRip 1080p by msltel | P2, A скачать через торрент бесплатно




    Звонок 0: Рождение / Ringu 0: Basudei (2000) BDRip 1080p by msltel | P2, A скачать через торрент бесплатно

    Опубликовал: Админ | Дата: 27-02-2015, 11:09 | Просмотров: 278



    Русское название: Звонок 0: Рождение
    Русское название в мировом прокате: Ringu 0: Basudei
    Создали в: 2000
    Категория жанра: Ужасы
    Снималось в: Япония, Ring 0: Birthday Seisaku Iinkai
    Главный режиссер: Норио Цурута
    Актеры: Юкиэ Накама, Сэйити Танабэ, Кумико Асо, Такеши Вакамацу, Рюджи Мидзуками, Каору Окунуки, Масами Хашимото, Дайскэ Бан, Масако, Норио Мурата, Коши Яно, Тасуку Уно, Акира Игараси, Коши Накано, Каньджи Ватанабе, Йошиюки Моришита, Цукаса Кимура, Акане Тачибана, Масато Оба, Ёдзи Танака, Манабу Кадоваки, Тинами Фуруя, Го Шимада, Таэко Кодама, Нами Асо, Изуми Итагаки, Масафуми Накаи, Норико Нарусэ, Йоко Накатани, Тсутому Ямамото

    Сюжет фильма: Фильм предлагает предысторию роковых событий Звонка — рассказ о юной девушке Садако, которая обнаруживает в себе загадочные и устрашающие способности. Может быть, призрак внутри экрана не исчадие Зла, а жертва людской ненависти...

    Качество фильма: BDRip 1080p
    Размер скачиваемого торрента: 9.73 ГБ
    Время просмотра: 01:38:46

    Информация о видео: MPEG-4 AVC, 10.0 Mбит/с, 1920x1036
    Информация о звуке 1: русский, 48 kHz, AC3, 2 ch, 192 kbps avg, Профессиональный двухголосый
    Информация о звуке 2: русский, 48 kHz, AC3, 6 ch, 448 kbps avg, Авторский, Андрей Гаврилов
    Информация о звуке 3: русский, 48 kHz, DTS, 6 ch, 1509 kbps avg, Авторский, Юрий Сербин

    Внешние файлы
    Информация о звуке: русский, 48 kHz, AC3, 6 ch, 448 kbps avg, Авторский, Юрий Сербин
    Информация о звуке: японский, 48 kHz, DTS, 6 ch, 1509 kbps avg, Оригинал
    Субтитры: русские
    Субтитры: английские

    Имеются неименованные главы/чаптеры.

    Исходник: Тарантиныч (Рутрекер)

    Сравнение с исходником



    MediaInfo Лог х264
    Общее
    Полное имя : E:VideoZvonok.0.2000.x264.BDRip.1080pZvonok.0.2000.AVO.rus.Ю.Сербин.ac3
    Формат : AC-3
    Формат/Информация : Audio Coding 3
    Размер файла : 317 Мбайт
    Продолжительность : 1 ч. 38 м.
    Режим общего битрейта : Постоянный
    Общий поток : 448 Кбит/сек

    Аудио
    Формат : AC-3
    Формат/Информация : Audio Coding 3
    Расширение режима : CM (complete main)
    Параметр Endianness формата : Big
    Продолжительность : 1 ч. 38 м.
    Вид битрейта : Постоянный
    Битрейт : 448 Кбит/сек
    Каналы : 6 каналов
    Расположение каналов : Front: L C R, Side: L R, LFE
    Частота : 48,0 КГц
    Битовая глубина : 16 бит
    Метод сжатия : С потерями
    Размер потока : 317 Мбайт (100%)

    Общее
    Полное имя : E:VideoZvonok.0.2000.x264.BDRip.1080pZvonok.0.2000.eng.srt
    Формат : SubRip
    Размер файла : 37,5 Кбайт

    Текст
    Формат : SubRip
    Метод сжатия : Без потерь

    Общее
    Полное имя : E:VideoZvonok.0.2000.x264.BDRip.1080pZvonok.0.2000.Original.jpn.dts
    Формат : DTS
    Формат/Информация : Digital Theater Systems
    Размер файла : 1,04 Гбайт
    Продолжительность : 1 ч. 38 м.
    Режим общего битрейта : Постоянный
    Общий поток : 1509 Кбит/сек

    Аудио
    Формат : DTS
    Формат/Информация : Digital Theater Systems
    Режим : 16
    Параметр Endianness формата : Big
    Продолжительность : 1 ч. 38 м.
    Вид битрейта : Постоянный
    Битрейт : 1509 Кбит/сек
    Каналы : 6 каналов
    Расположение каналов : Front: L C R, Side: L R, LFE
    Частота : 48,0 КГц
    Битовая глубина : 24 бит
    Метод сжатия : С потерями
    Размер потока : 1,04 Гбайт

    Общее
    Полное имя : E:VideoZvonok.0.2000.x264.BDRip.1080pZvonok.0.2000.rus.srt
    Формат : SubRip
    Размер файла : 39,3 Кбайт

    Текст
    Формат : SubRip
    Метод сжатия : Без потерь

    Общее
    Уникальный идентификатор : 242109799014908204330723996186089736540 (0xB624A6B36BA22F4EB816B0A0AD05C95C)
    Полное имя : E:VideoZvonok.0.2000.x264.BDRip.1080pZvonok.0.2000.x264.BDRip.1080p.mkv
    Формат : Matroska
    Версия формата : Version 4 / Version 2
    Размер файла : 8,38 Гбайт
    Продолжительность : 1 ч. 38 м.
    Общий поток : 12,1 Мбит/сек
    Название фильма : Звонок 0: Рождение / Ringu 0: Basudei (Ring 0: Birthday) / 2000 / BDRip -- STarankov
    Дата кодирования : UTC 2013-11-06 01:29:10
    Программа кодирования : mkvmerge v6.4.1 (;Omega Point;) built on Sep 16 2013 22:05:10
    Библиотека кодирования : libebml v1.3.0 libmatroska v1.4.1

    Видео
    Идентификатор : 1
    Формат : AVC
    Формат/Информация : Advanced Video Codec
    Профиль формата : High@L4.1
    Параметр CABAC формата : Да
    Параметр ReFrames формата : 4 кадра
    Идентификатор кодека : V_MPEG4/ISO/AVC
    Продолжительность : 1 ч. 38 м.
    Битрейт : 10000 Кбит/сек
    Ширина : 1920 пикселей
    Высота : 1036 пикселей
    Соотношение сторон : 1,85:1
    Режим частоты кадров : Постоянный
    Частота кадров : 23,976 кадра/сек
    Цветовое пространство : YUV
    Субдискретизация насыщенности : 4:2:0
    Битовая глубина : 8 бит
    Тип развёртки : Прогрессивная
    Бит/(Пиксели*Кадры) : 0.210
    Размер потока : 6,73 Гбайт (80%)
    Библиотека кодирования : x264 core 133 r2334 a3ac64b
    Залил: msltel
    Размер скачиваемого торрента: 9.73 GB (10449141768 Bytes)


    Звонок 0: Рождение / Ringu 0: Basudei (2000) BDRip 1080p by msltel | P2, A скачать через торрент бесплатно
    загрузка...
    Рейтинг →
     (голосов: 1, оценка 5/5, голосовать можно 1 раз )

    Другие торренты по теме:

  • Звонок 0: Рождение / Ringu 0: Basudei / Ring 0: Birthday (2000) BDRemux | A
  • Звонок 0: Рождение / Ringu 0: Basudei / Ring 0: Birthday (2000) BDRip-AVC | A
  • Звонок 0: Рождение / Ringu 0: Basudei (2000) BDRip 720p by msltel | P2, A


    • Комментарии (0):

      Информация

      Информация

        Посетители, находящиеся в группе Гости, не могут оставлять комментарии в данной новости.

        ↓ Меню



        ↓ Опрос

        А Вы добавили сайт в закладки?
        Да
        Не


        Top 10 за месяц (Фильмы)