.
Авторизация | Регистрация
Хочешь лучшие торренты? Добавь свой email!
Добавить
» » Всех порву! / Revenge for Jolly! (2012) HDRip от BitTracker скачать через торрент бесплатно




    Всех порву! / Revenge for Jolly! (2012) HDRip от BitTracker скачать через торрент бесплатно

    Опубликовал: Админ | Дата: 27-02-2015, 11:09 | Просмотров: 281



    Детально о кино
    Русское название: Всех порву!
    Русское название в мировом прокате: Revenge for Jolly!
    Создали в: 2012
    Категория жанра: драма, комедия
    Главный режиссер: Чадд Харбольд / Chadd Harbold
    Актеры: Брайан Питсос, Оскар Айзек, Элайджа Вуд, Райан Филипп, Кристен Уиг, Адам Броди, Джиллиан Джейкобс, Бобби Мойнихэн мл., Кевин Корригэн, Дэвид Раш

    Сюжет фильма:
    Главный герой при помощи своего двоюродного брата собирается отомстить за смерть своей любимой собаки, которая была убита при странных обстоятельствах. Для поимки преступника герои проводят свое собственное расследование, сметая любые препятствия на своем пути.




    Снималось в: США
    Киностудия: A Saboteur
    Время просмотра: 01:24:20
    Перевод текста: Профессиональный (многоголосный) Нтв

    Файл
    Кодек для видео: XviD
    Качество фильма: HDRip (Исх. BDRip 720p)
    Информация о видео: 640x272 (2.35:1), 24.000 fps, XviD build 50 ~1097 kbps avg, 0.26 bit/pixel
    Информация о звуке: 48 kHz, MPEG Layer 3, 2 ch, ~128.00 kbps avg
    Субтитры: нет

    Семпл

    MediaInfo

    Общее
    Полное имя : S:ФильмыВсех порву. 2012. HDRip (AleksSin).avi
    Формат : AVI
    Формат/Информация : Audio Video Interleave
    Размер файла : 745 Мбайт
    Продолжительность : 1 ч. 24 м.
    Общий поток : 1234 Кбит/сек
    Программа кодирования : VirtualDubMod 1.5.10.3 | www.virtualdub-fr.org || (build 2550/release)
    Библиотека кодирования : VirtualDubMod build 2550/release

    Видео
    Идентификатор : 0
    Формат : MPEG-4 Visual
    Профиль формата : Advanced Simple@L5
    Параметр BVOP формата : 2
    Параметр QPel формата : Нет
    Параметр GMC формата : Без точки перехода
    Параметр матрицы формата : Default (H.263)
    Идентификатор кодека : XVID
    Идентификатор кодека/Подсказка : XviD
    Продолжительность : 1 ч. 24 м.
    Битрейт : 1097 Кбит/сек
    Ширина : 640 пикс.
    Высота : 272 пикс.
    Соотношение сторон : 2,35:1
    Частота кадров : 24,000 кадр/сек
    Цветовое пространство : YUV
    Подвыборка цветности : 4:2:0
    Битовая глубина : 8 бит
    Тип развёртки : Прогрессивная
    Метод сжатия : С потерями
    Бит/(Пиксели*Кадры) : 0.263
    Размер потока : 662 Мбайт (89%)
    Библиотека кодирования : XviD 1.2.1 (UTC 2008-12-04)

    Аудио
    Идентификатор : 1
    Формат : MPEG Audio
    Версия формата : Version 1
    Профиль формата : Layer 3
    Идентификатор кодека : 55
    Идентификатор кодека/Подсказка : MP3
    Продолжительность : 1 ч. 24 м.
    Вид битрейта : Постоянный
    Битрейт : 128 Кбит/сек
    Каналы : 2 канала
    Частота : 48,0 КГц
    Метод сжатия : С потерями
    Размер потока : 77,2 Мбайт (10%)
    Выравнивание : Соединение по промежуткам
    Продолжительность промежутка : 42 мс. (1,00 видеокадр)
    Время предзагрузки промежутка : 504 ms
    Библиотека кодирования : LAME3.99r
    Залил: AleksSin
    Размер скачиваемого торрента: 744.62 MB (780793856 Bytes)


    Всех порву! / Revenge for Jolly! (2012) HDRip от BitTracker скачать через торрент бесплатно
    загрузка...
    Рейтинг →
     (голосов: 1, оценка 3/5, голосовать можно 1 раз )

    Другие торренты по теме:

  • Лучше всех! (2017) HDTV 1080i от GeneralFilm
  • Ziga rec. - Война всех против всех (2014) MP3 скачать через торрент бесплатно
  • Торсунов О.Г. - Полный сборник всех лекций (2006-2012) MP3
  • Бескаравайный М.И. - Устройство автомобиля просто и понятно для всех (2008) PDF
  • Один против всех (эфир 31.12.2012) IPTVRip
  • У всех есть план / Todos tenemos un plan (2012) DVDRip | L1
  • SamDrivers 13.1 - Сборник драйверов для всех Windows (2013) PC | ISO
  • Один против всех (2013) IPTVRip


    • Комментарии (0):

      Информация

      Информация

        Посетители, находящиеся в группе Гости, не могут оставлять комментарии в данной новости.

        ↓ Меню



        ↓ Опрос

        А Вы добавили сайт в закладки?
        Да
        Не


        Top 10 за месяц (Фильмы)