.
Авторизация | Регистрация
Хочешь лучшие торренты? Добавь свой email!
Добавить
» » Дамское счастье / The Paradise (2012) WEBDLRip | Домашний скачать торрент бесплатно




    Дамское счастье / The Paradise (2012) WEBDLRip | Домашний скачать торрент бесплатно

    Опубликовал: Админ | Дата: 27-02-2015, 11:09 | Просмотров: 572



    Детально о кино
    Русское название: Дамское счастье
    Русское название в мировом прокате: The Paradise
    Создали в: 2012
    Категория жанра: драма
    Главный режиссер: Дэвид Друри, Марк Йобст, Сьюзэн Талли
    Актеры: Джоанна Вандерхем, Эмун Эллиотт, Питер Уайт, Мэтью МакНалти, Стивен Уайт, Соня Кессиди, Руби Бентал

    Сюжет фильма:
    Экранизация одноименного романа Эмиля Золя, действие которого перенесено из Парижа в Англию 1890-х годов и рассказывает историю юной девушки Дениз, которая попадает в большой город без каких-либо средств к существованию и устраивается на работу в магазин для дам. Очень скоро она понимает, что за восхитительной витриной скрывается мир интриг, любовных связей и борьбы за власть.



    Снималось в: Великобритания
    Киностудия: BBC Productions, Masterpiece co-production
    Время просмотра: ~ 60 минут серия
    Перевод текста: Профессиональный (многоголосый закадровый) ТК Домашний

    Файл
    Кодек для видео: XviD / AC3
    Качество фильма: WEBDLRip
    Информация о видео: XviD, 720x400 (16:9), 25.000 fps, 1 390 Kbps (0.193 bit/pixel)
    Информация о звуке: AC3, 48.0 KHz, 2 ch, 192 Kbps

    Скриншоты для ознакомления
    MediaInfo
    Общее
    Полное имя : K:МОИ РАЗДАЧИДамское счастьеThe.Paradise.s01e01.WEB-DLRip.Rus.avi
    Формат : AVI
    Формат/Информация : Audio Video Interleave
    Размер файла : 670 Мбайт
    Продолжительность : 59 м.
    Общий поток : 1588 Кбит/сек
    Название фильма : Дамское счастье. Сезон 1 / The Paradise. Season 1 (2012)
    Программа кодирования : VirtualDubMod 1.5.10.2 (build 2540/release)
    Библиотека кодирования : VirtualDubMod build 2540/release

    Видео
    Идентификатор : 0
    Формат : MPEG-4 Visual
    Профиль формата : Advanced Simple@L5
    Параметр BVOP формата : 1
    Параметр QPel формата : Нет
    Параметр GMC формата : Без точки перехода
    Параметр матрицы формата : Выборочная
    Идентификатор кодека : XVID
    Идентификатор кодека/Подсказка : XviD
    Продолжительность : 59 м.
    Битрейт : 1390 Кбит/сек
    Ширина : 720 пикселей
    Высота : 400 пикселей
    Соотношение сторон : 16:9
    Частота кадров : 25,000 кадров/сек
    Цветовое пространство : YUV
    Субдискретизация насыщенности : 4:2:0
    Битовая глубина : 8 бит
    Тип развёртки : Прогрессивная
    Метод сжатия : С потерями
    Бит/(Пиксели*Кадры) : 0.193
    Размер потока : 587 Мбайт (88%)
    Библиотека кодирования : XviD 73

    Аудио
    Идентификатор : 1
    Формат : AC-3
    Формат/Информация : Audio Coding 3
    Расширение режима : CM (complete main)
    Идентификатор кодека : 2000
    Продолжительность : 59 м.
    Вид битрейта : Постоянный
    Битрейт : 192 Кбит/сек
    Каналы : 2 канала
    Расположение каналов : Front: L R
    Частота : 48,0 КГц
    Битовая глубина : 16 бит
    Метод сжатия : С потерями
    Размер потока : 81,0 Мбайт (12%)
    Выравнивание : Соединение по промежуткам
    Продолжительность промежутка : 160 мс. (4,00 видеокадра)
    Время предзагрузки промежутка : 640 мс.
    Заголовок : Профессиональный (многоголосый, закадровый) Домашний

    Размер скачиваемого торрента: 5.25 GB (5632004096 Bytes)

    Дамское счастье / The Paradise (2012) WEBDLRip | Домашний торрент скачать бесплатно
    загрузка...
    Рейтинг →
     (голосов: 1, оценка 4/5, голосовать можно 1 раз )

    Другие торренты по теме:

  • Дамское счастье / The Paradise (2012) WEBDLRip
  • Дамское счастье / The Paradise (2013) WEB-DLRip | BaibaKo скачать через торрент бесплатно
  • Дамское счастье / The Paradise (2013) WEB-DL 720p | BaibaKo скачать через торрент бесплатно
  • Дамское счастье / The Paradise (2013) WEB-DL 1080p | BaibaKo скачать через торрент бесплатно
  • Дамское счастье / The Paradise (2012-2013) WEB-DLRip | BaibaKo
  • Дамское счастье / The Paradise [S01-02] (2012-2013)


    • Комментарии (0):

      Информация

      Информация

        Посетители, находящиеся в группе Гости, не могут оставлять комментарии в данной новости.

        ↓ Меню



        ↓ Опрос

        А Вы добавили сайт в закладки?
        Да
        Не


        Top 10 за месяц (Фильмы)