.
Авторизация | Регистрация
Хочешь лучшие торренты? Добавь свой email!
Добавить
» » Ничего себе поездочка / Joy Ride (2001) BDRip (AVC) от MediaClub | D, P скачать торрент бесплатно




    Ничего себе поездочка / Joy Ride (2001) BDRip (AVC) от MediaClub | D, P скачать торрент бесплатно

    Опубликовал: Админ | Дата: 27-02-2015, 11:09 | Просмотров: 247



    Детально о кино
    Русское название: Ничего себе поездочка
    Русское название в мировом прокате: Joy Ride
    Создали в: 2001
    Категория жанра: Ужасы, боевик, триллер
    Главный режиссер: Джон Дал
    Актеры: Стив Зан, Пол Уокер, Лили Собески, Джессика Боуман, Стюарт Стоун, Бейзил Уоллес, Брайан Лекнер, Мэри Уиклифф, МакКензи Саттеруэйт, Делл Йонт, Кеннет Уайт, Луис Кортес, Майкл МакКлири, Джим Бивер, Рэйчел Сингер, Сатч Гузенда, Терри Леонард, Джеймс МакДональд, Гвенда Дикон, Роберт Уинли, Али Гейдж, Джек Мур, Хью Дэйн, Ли Степп. Джей Эрнандес, Хьюи Редвайн

    Сюжет фильма:
    Темная, пустынная лента шоссе змеей протянулась по безлюдному ландшафту средней Америки. Эта дорога живет своей жизнью, по своим правилам и законам, и если ты осмелился совершить по ней путешествие, то не плохо бы эти законы выучить наизусть. Герои фильма попадают в жуткую переделку, когда Фулер уговаривает младшего брата Льюиса установить в машине старый радиопередатчик. Для него это лишь клевая антикварная диковинка, с помощью которой можно позволить себе небольшой розыгрыш. Теперь ребятам придется своей кровью расплачиваться за поступок, на который способен каждый из нас…



    Снималось в: США / Bad Robot, Epsilon Motion Pictures, LivePlanet, New Regency Pictures, Regency Enterprises
    Время просмотра: 01:37:07
    Перевод текста: Дублированный, профессиональный многоголосый

    Файл
    Кодек для видео: x264
    Качество фильма: BDRip (AVC)
    Информация о видео: MPEG-4 AVC, 3000 Кбит/с, 1024x436, 23.976 кадр/с
    Информация о звуке #1: Русский (AC3, 6 ch, 448 Кбит/с) / Дублированный
    Информация о звуке #2: Русский (AC3, 6 ch, 448 Кбит/с) / Профессиональный многоголосый
    Информация о звуке #3: Английский (AC3, 6 ch, 448 Кбит/с)
    Субтитры: Русские, английские

    Семпл

    О релизе
    • За исходник СПАСИБО BitHQ

    • За русские субтитры СПАСИБО Kaspr

    • Сохраненны оригинальные чаптеры как на Blu-Ray

    • Огромная благодарность Media-Art-Club за созданный постер к раздаче!

    --------------------------------------------------------------------------------------
    x264 info: frame I:1315 Avg QP:15.26 size: 70355
    x264 info: frame P:28923 Avg QP:17.52 size: 28818
    x264 info: frame B:109471 Avg QP:19.10 size: 11489
    --------------------------------------------------------------------------------------

    MI
    Format : Matroska
    Format version : Version 4 / Version 2
    File size : 2.95 GiB
    Duration : 1h 37mn
    Overall bit rate : 4 345 Kbps
    Movie name : -=MediaClub-Odessit=-
    Encoded date : UTC 2013-11-05 14:27:28
    Writing application : mkvmerge v6.2.0 (;Promised Land;) built on Apr 28 2013 12:22:01
    Writing library : libebml v1.3.0 libmatroska v1.4.0

    Video
    ID : 1
    Format : AVC
    Format/Info : Advanced Video Codec
    Format profile : High@L4.1
    Format settings, CABAC : Yes
    Format settings, ReFrames : 10 frames
    Codec ID : V_MPEG4/ISO/AVC
    Duration : 1h 37mn
    Bit rate : 3 000 Kbps
    Width : 1 024 pixels
    Height : 436 pixels
    Display aspect ratio : 2.35:1
    Frame rate : 23.976 fps
    Color space : YUV
    Chroma subsampling : 4:2:0
    Bit depth : 8 bits
    Scan type : Progressive
    Bits/(Pixel*Frame) : 0.280
    Stream size : 1.98 GiB (67%)
    Writing library : x264 core 130 r2273 b3065e6
    Encoding settings : cabac=1 / ref=10 / deblock=1:-3:-3 / analyse=0x3:0x133 / me=umh / subme=11 / psy=1 / psy_rd=1.00:0.20 / mixed_ref=1 / me_range=48 / chroma_me=1 / trellis=2 / 8x8dct=1 / cqm=0 / deadzone=21,11 / fast_pskip=0 / chroma_qp_offset=-3 / threads=6 / lookahead_threads=1 / sliced_threads=0 / nr=0 / decimate=0 / interlaced=0 / bluray_compat=0 / constrained_intra=0 / bframes=9 / b_pyramid=2 / b_adapt=2 / b_bias=0 / direct=3 / weightb=1 / open_gop=0 / weightp=2 / keyint=240 / keyint_min=23 / scenecut=40 / intra_refresh=0 / rc=2pass / mbtree=0 / bitrate=3000 / ratetol=1.0 / qcomp=0.60 / qpmin=0 / qpmax=69 / qpstep=4 / cplxblur=20.0 / qblur=0.5 / ip_ratio=1.40 / pb_ratio=1.30 / aq=1:1.00
    Language : English

    Audio #1
    ID : 2
    Format : AC-3
    Format/Info : Audio Coding 3
    Mode extension : CM (complete main)
    Codec ID : A_AC3
    Duration : 1h 37mn
    Bit rate mode : Constant
    Bit rate : 448 Kbps
    Channel(s) : 6 channels
    Channel positions : Front: L C R, Side: L R, LFE
    Sampling rate : 48.0 KHz
    Bit depth : 16 bits
    Compression mode : Lossy
    Stream size : 311 MiB (10%)
    Title : Дублированный
    Language : Russian

    Audio #2
    ID : 3
    Format : AC-3
    Format/Info : Audio Coding 3
    Mode extension : CM (complete main)
    Codec ID : A_AC3
    Duration : 1h 37mn
    Bit rate mode : Constant
    Bit rate : 448 Kbps
    Channel(s) : 6 channels
    Channel positions : Front: L C R, Side: L R, LFE
    Sampling rate : 48.0 KHz
    Bit depth : 16 bits
    Compression mode : Lossy
    Stream size : 311 MiB (10%)
    Title : Профессиональный многоголосый
    Language : Russian

    Audio #3
    ID : 4
    Format : AC-3
    Format/Info : Audio Coding 3
    Mode extension : CM (complete main)
    Codec ID : A_AC3
    Duration : 1h 37mn
    Bit rate mode : Constant
    Bit rate : 448 Kbps
    Channel(s) : 6 channels
    Channel positions : Front: L C R, Side: L R, LFE
    Sampling rate : 48.0 KHz
    Bit depth : 16 bits
    Compression mode : Lossy
    Stream size : 311 MiB (10%)
    Language : English

    Text #1
    ID : 5
    Format : UTF-8
    Codec ID : S_TEXT/UTF8
    Codec ID/Info : UTF-8 Plain Text
    Language : Russian

    Text #2
    ID : 6
    Format : UTF-8
    Codec ID : S_TEXT/UTF8
    Codec ID/Info : UTF-8 Plain Text
    Language : English

    Menu
    00:00:00.000 : :Chapter 01
    00:01:53.113 : :Chapter 03
    00:03:49.187 : :Chapter 05
    00:06:03.404 : :Chapter 07
    00:10:04.812 : :Chapter 09
    00:11:40.116 : :Chapter 11
    00:15:52.826 : :Chapter 13
    00:17:21.707 : :Chapter 15
    00:21:27.911 : :Chapter 17
    00:25:58.515 : :Chapter 19
    00:31:03.611 : :Chapter 21
    00:36:08.374 : :Chapter 23
    00:39:21.984 : :Chapter 25
    00:42:22.206 : :Chapter 27
    00:48:36.371 : :Chapter 29
    00:50:40.829 : :Chapter 31
    00:54:37.190 : :Chapter 33
    00:58:30.381 : :Chapter 35
    01:00:51.731 : :Chapter 37
    01:02:46.345 : :Chapter 39
    01:04:39.500 : :Chapter 41
    01:08:00.451 : :Chapter 43
    01:12:18.042 : :Chapter 45
    01:15:57.678 : :Chapter 47
    01:18:10.060 : :Chapter 49
    01:24:02.829 : :Chapter 51
    01:25:54.107 : :Chapter 53
    01:29:02.587 : :Chapter 55
    01:31:40.620 : :Chapter 57
    01:33:05.288 : :Chapter 59
    01:37:06.820 : :Chapter 60

    Скриншоты для ознакомления


    Релиз подготовил: |
    Размер скачиваемого торрента: 2.95 GB (3164470167 Bytes)

    Ничего себе поездочка / Joy Ride (2001) BDRip (AVC) от MediaClub | D, P торрент скачать бесплатно
    загрузка...
    Рейтинг →
     (голосов: 1, оценка 4/5, голосовать можно 1 раз )

    Другие торренты по теме:

  • Ничего себе поездочка / Joy Ride (2001) HDTVRip-AVC | D, P
  • Ничего себе поездочка 2: Смерть впереди / Joy Ride 2: Dead Ahead (2008) WEB-DLRip-AVC
  • Ничего себе поездочка / Joy Ride (2001) BDRip от MediaClub | D, P
  • Ничего себе поездочка / Joy Ride (2001) BDRemux 1080p от MediaClub | D, P
  • Ничего себе поездочка / Joy Ride (2001) BDRip 720p от MediaClub | D, P
  • Ничего себе поездочка / Joy Ride (2001) BDRip 1080p от MediaClub | D, P скачать через торрент бесплатно
  • Ничего себе поездочка / Joy Ride (2001) BDRip-AVC от Rulya74 скачать через торрент бесплатно
  • Ничего себе поездочка / Joy Ride (2001) BDRip от HQCLUB


    • Комментарии (0):

      Информация

      Информация

        Посетители, находящиеся в группе Гости, не могут оставлять комментарии в данной новости.

        ↓ Меню



        ↓ Опрос

        А Вы добавили сайт в закладки?
        Да
        Не


        Top 10 за месяц (Фильмы)