.
Авторизация | Регистрация
Хочешь лучшие торренты? Добавь свой email!
Добавить
» » Ничего себе поездочка / Joy Ride (2001) BDRemux 1080p от MediaClub | D, P скачать торрент бесплатно




    Ничего себе поездочка / Joy Ride (2001) BDRemux 1080p от MediaClub | D, P скачать торрент бесплатно

    Опубликовал: Админ | Дата: 27-02-2015, 11:09 | Просмотров: 328



    Детально о кино
    Русское название: Ничего себе поездочка
    Русское название в мировом прокате: Joy Ride (Road Kill)
    Создали в: 2001
    Категория жанра: Ужасы, боевик, триллер
    Главный режиссер: Джон Дал
    Актеры: Стив Зан, Пол Уокер, Лили Собески, Джессика Боуман, Стюарт Стоун, Бейзил Уоллес, Брайан Лекнер, Мэри Уиклифф, МакКензи Саттеруэйт, Делл Йонт, Кеннет Уайт, Луис Кортес, Майкл МакКлири, Джим Бивер, Рэйчел Сингер, Сатч Гузенда, Терри Леонард, Джеймс МакДональд, Гвенда Дикон, Роберт Уинли, Али Гейдж, Джек Мур, Хью Дэйн, Ли Степп. Джей Эрнандес, Хьюи Редвайн

    Сюжет: Темная, пустынная лента шоссе змеей протянулась по безлюдному ландшафту средней Америки. Эта дорога живет своей жизнью, по своим правилам и законам, и если ты осмелился совершить по ней путешествие, то не плохо бы эти законы выучить наизусть. Герои фильма попадают в жуткую переделку, когда Фулер уговаривает младшего брата Льюиса установить в машине старый радиопередатчик. Для него это лишь клевая антикварная диковинка, с помощью которой можно позволить себе небольшой розыгрыш. Теперь ребятам придется своей кровью расплачиваться за поступок, на который способен каждый из нас…




    Снималось в: США
    Киностудия: Bad Robot, Epsilon Motion Pictures, LivePlanet, New Regency Pictures, Regency Enterprises
    Время просмотра: 01:37:07
    Перевод текста: Дублированный, профессиональный многоголосый

    Файл
    Качество фильма: BDRemux 1080p
    Информация о видео: MPEG-4 AVC, 37201 Кбит/с, 1920x1080, 23.976 кадр/с
    Информация о звуке #1: Русский (AC3, 6 ch, 448 Кбит/с) / Дублированный
    Информация о звуке #2: Русский (AC3, 6 ch, 448 Кбит/с) / Профессиональный многоголосый
    Информация о звуке #3: Английский (DTS-HD MA, 6 ch, 4252 Кбит/с)
    Субтитры: Русские, английские

    Скриншоты для ознакомления


    MI
    Общее
    Уникальный идентификатор : 170483965110970916209204712333136310940 (0x80420470B091EBD491E5088580DF329C)
    Полное имя : D:Mои раздачиJoy.Ride.2001.BDRemux.(1080p)-MediaClub.mkv
    Формат : Matroska
    Версия формата : Version 4 / Version 2
    Размер файла : 28,5 Гбайт
    Продолжительность : 1 ч. 37 м.
    Режим общего битрейта : Переменный
    Общий поток : 42,1 Мбит/сек
    Название фильма : -=MediaClub-kaspr=-
    Дата кодирования : UTC 2013-11-05 12:19:07
    Программа кодирования : mkvmerge v6.1.0 (;Old Devil;) built on Mar 4 2013 09:10:42
    Библиотека кодирования : libebml v1.3.0 libmatroska v1.4.0

    Видео
    Идентификатор : 1
    Формат : AVC
    Формат/Информация : Advanced Video Codec
    Профиль формата : High@L4.1
    Параметр CABAC формата : Да
    Параметр ReFrames формата : 4 кадра
    Идентификатор кодека : V_MPEG4/ISO/AVC
    Продолжительность : 1 ч. 37 м.
    Вид битрейта : Переменный
    Максимальный битрейт : 39,2 Мбит/сек
    Ширина : 1920 пикселей
    Высота : 1080 пикселей
    Соотношение сторон : 16:9
    Режим частоты кадров : Постоянный
    Частота кадров : 23,976 кадра/сек
    Цветовое пространство : YUV
    Субдискретизация насыщенности : 4:2:0
    Битовая глубина : 8 бит
    Тип развёртки : Прогрессивная
    Заголовок : -=MediaClub-kaspr=-
    Default : Да
    Forced : Нет

    Аудио #1
    Идентификатор : 2
    Формат : AC-3
    Формат/Информация : Audio Coding 3
    Расширение режима : CM (complete main)
    Параметр Endianness формата : Big
    Идентификатор кодека : A_AC3
    Продолжительность : 1 ч. 37 м.
    Вид битрейта : Постоянный
    Битрейт : 448 Кбит/сек
    Каналы : 6 каналов
    Расположение каналов : Front: L C R, Side: L R, LFE
    Частота : 48,0 КГц
    Битовая глубина : 16 бит
    Метод сжатия : С потерями
    Размер потока : 311 Мбайт (1%)
    Заголовок : DUB
    Язык : Russian
    Default : Да
    Forced : Да

    Аудио #2
    Идентификатор : 3
    Формат : AC-3
    Формат/Информация : Audio Coding 3
    Расширение режима : CM (complete main)
    Параметр Endianness формата : Big
    Идентификатор кодека : A_AC3
    Продолжительность : 1 ч. 37 м.
    Вид битрейта : Постоянный
    Битрейт : 448 Кбит/сек
    Каналы : 6 каналов
    Расположение каналов : Front: L C R, Side: L R, LFE
    Частота : 48,0 КГц
    Битовая глубина : 16 бит
    Метод сжатия : С потерями
    Размер потока : 311 Мбайт (1%)
    Заголовок : MVO
    Язык : Russian
    Default : Нет
    Forced : Нет

    Аудио #3
    Идентификатор : 4
    Формат : DTS
    Формат/Информация : Digital Theater Systems
    Профиль формата : MA / Core
    Режим : 16
    Параметр Endianness формата : Big
    Идентификатор кодека : A_DTS
    Продолжительность : 1 ч. 37 м.
    Вид битрейта : Переменный
    Битрейт : Неизвестно / 1509 Кбит/сек
    Каналы : 6 каналов
    Расположение каналов : Front: L C R, Side: L R, LFE
    Частота : 48,0 КГц
    Битовая глубина : 24 бит
    Метод сжатия : Без потерь / Lossy
    Язык : English
    Default : Нет
    Forced : Нет

    Текст #1
    Идентификатор : 5
    Формат : UTF-8
    Идентификатор кодека : S_TEXT/UTF8
    Идентификатор кодека/Информация : UTF-8 Plain Text
    Язык : Russian
    Default : Нет
    Forced : Нет

    Текст #2
    Идентификатор : 6
    Формат : UTF-8
    Идентификатор кодека : S_TEXT/UTF8
    Идентификатор кодека/Информация : UTF-8 Plain Text
    Язык : English
    Default : Нет
    Forced : Нет

    Меню
    00:00:00.000 : en:Chapter 01
    00:01:53.113 : en:Chapter 03
    00:03:49.187 : en:Chapter 05
    00:06:03.404 : en:Chapter 07
    00:10:04.812 : en:Chapter 09
    00:11:40.116 : en:Chapter 11
    00:15:52.826 : en:Chapter 13
    00:17:21.707 : en:Chapter 15
    00:21:27.911 : en:Chapter 17
    00:25:58.515 : en:Chapter 19
    00:31:03.611 : en:Chapter 21
    00:36:08.374 : en:Chapter 23
    00:39:21.984 : en:Chapter 25
    00:42:22.206 : en:Chapter 27
    00:48:36.371 : en:Chapter 29
    00:50:40.829 : en:Chapter 31
    00:54:37.190 : en:Chapter 33
    00:58:30.381 : en:Chapter 35
    01:00:51.731 : en:Chapter 37
    01:02:46.345 : en:Chapter 39
    01:04:39.500 : en:Chapter 41
    01:08:00.451 : en:Chapter 43
    01:12:18.042 : en:Chapter 45
    01:15:57.678 : en:Chapter 47
    01:18:10.060 : en:Chapter 49
    01:24:02.829 : en:Chapter 51
    01:25:54.107 : en:Chapter 53
    01:29:02.587 : en:Chapter 55
    01:31:40.620 : en:Chapter 57
    01:33:05.288 : en:Chapter 59

    Релиз:
    Залил: kaspr
    Размер скачиваемого торрента: 28.54 GB (30643813530 Bytes)

    Ничего себе поездочка / Joy Ride (2001) BDRemux 1080p от MediaClub | D, P торрент скачать бесплатно
    загрузка...
    Рейтинг →
     (голосов: 1, оценка 5/5, голосовать можно 1 раз )

    Другие торренты по теме:

  • Ничего себе поездочка / Joy Ride (2001) HDTVRip-AVC | D, P
  • Ничего себе поездочка 2: Смерть впереди / Joy Ride 2: Dead Ahead (2008) WEB-DLRip-AVC
  • Ничего себе поездочка / Joy Ride (2001) BDRip от MediaClub | D, P
  • Ничего себе поездочка / Joy Ride (2001) BDRip (AVC) от MediaClub | D, P
  • Ничего себе поездочка / Joy Ride (2001) BDRip 720p от MediaClub | D, P
  • Ничего себе поездочка / Joy Ride (2001) BDRip 1080p от MediaClub | D, P скачать через торрент бесплатно
  • Ничего себе поездочка / Joy Ride (2001) BDRip-AVC от Rulya74 скачать через торрент бесплатно
  • Ничего себе поездочка / Joy Ride (2001) BDRip от HQCLUB


    • Комментарии (0):

      Информация

      Информация

        Посетители, находящиеся в группе Гости, не могут оставлять комментарии в данной новости.

        ↓ Меню



        ↓ Опрос

        А Вы добавили сайт в закладки?
        Да
        Не


        Top 10 за месяц (Фильмы)