.
Авторизация | Регистрация
Хочешь лучшие торренты? Добавь свой email!
Добавить
» » Ничего себе поездочка / Joy Ride (2001) BDRip от MediaClub | D, P скачать торрент бесплатно




    Ничего себе поездочка / Joy Ride (2001) BDRip от MediaClub | D, P скачать торрент бесплатно

    Опубликовал: Админ | Дата: 27-02-2015, 11:09 | Просмотров: 305



    Детально о кино
    Русское название: Ничего себе поездочка
    Русское название в мировом прокате: Joy Ride
    Создали в: 2001
    Категория жанра: Ужасы, боевик, триллер
    Главный режиссер: Джон Дал
    Актеры: Стив Зан, Пол Уокер, Лили Собески, Джессика Боуман, Стюарт Стоун, Бейзил Уоллес, Брайан Лекнер, Мэри Уиклифф, МакКензи Саттеруэйт, Делл Йонт, Кеннет Уайт, Луис Кортес, Майкл МакКлири, Джим Бивер, Рэйчел Сингер, Сатч Гузенда, Терри Леонард, Джеймс МакДональд, Гвенда Дикон, Роберт Уинли, Али Гейдж, Джек Мур, Хью Дэйн, Ли Степп. Джей Эрнандес, Хьюи Редвайн

    Сюжет фильма:
    Темная, пустынная лента шоссе змеей протянулась по безлюдному ландшафту средней Америки. Эта дорога живет своей жизнью, по своим правилам и законам, и если ты осмелился совершить по ней путешествие, то не плохо бы эти законы выучить наизусть. Герои фильма попадают в жуткую переделку, когда Фулер уговаривает младшего брата Льюиса установить в машине старый радиопередатчик. Для него это лишь клевая антикварная диковинка, с помощью которой можно позволить себе небольшой розыгрыш. Теперь ребятам придется своей кровью расплачиваться за поступок, на который способен каждый из нас…



    Снималось в: США / Bad Robot, Epsilon Motion Pictures, LivePlanet, New Regency Pictures, Regency Enterprises
    Время просмотра: 01:37:07
    Перевод текста: Дублированный, профессиональный многоголосый

    Файл
    Кодек для видео: XviD
    Качество фильма: BDRip
    Информация о видео: XviD, 1682 Кбит/с, 720x304
    Информация о звуке #1: Русский (AC3, 6 ch, 448 Кбит/с) / Дублированный
    Информация о звуке #2: Русский (AC3, 6 ch, 448 Кбит/с) / Профессиональный многоголосый - (отдельно)
    Информация о звуке #3: Английский (AC3, 6 ch, 448 Кбит/с) - (отдельно)
    Субтитры: Русские, английские

    Семпл

    MI
    Format : AVI
    Format/Info : Audio Video Interleave
    File size : 1.45 GiB
    Duration : 1h 37mn
    Overall bit rate : 2 140 Kbps
    Movie name : Joy.Ride.2001.XviD.BDRip.-MediaClub
    Director : -=MediaClub-Odessit=-
    Writing application : VirtualDubMod 1.5.10.3 (build 2550/release)
    Writing library : VirtualDubMod build 2550/release

    Video
    ID : 0
    Format : MPEG-4 Visual
    Format profile : Advanced Simple@L5
    Format settings, BVOP : 1
    Format settings, QPel : No
    Format settings, GMC : No warppoints
    Format settings, Matrix : Custom
    Codec ID : XVID
    Codec ID/Hint : XviD
    Duration : 1h 37mn
    Bit rate : 1 682 Kbps
    Width : 720 pixels
    Height : 304 pixels
    Display aspect ratio : 2.35:1
    Frame rate : 23.976 fps
    Color space : YUV
    Chroma subsampling : 4:2:0
    Bit depth : 8 bits
    Scan type : Progressive
    Compression mode : Lossy
    Bits/(Pixel*Frame) : 0.321
    Stream size : 1.14 GiB (79%)
    Writing library : XviD 73

    Audio
    ID : 1
    Format : AC-3
    Format/Info : Audio Coding 3
    Mode extension : CM (complete main)
    Codec ID : 2000
    Duration : 1h 37mn
    Bit rate mode : Constant
    Bit rate : 448 Kbps
    Channel(s) : 6 channels
    Channel positions : Front: L C R, Side: L R, LFE
    Sampling rate : 48.0 KHz
    Bit depth : 16 bits
    Compression mode : Lossy
    Stream size : 311 MiB (21%)
    Alignment : Split accross interleaves
    Interleave, duration : 42 ms (1.00 video frame)
    Interleave, preload duration : 500 ms

    О релизе
    • За исходник СПАСИБО BitHQ

    • За русские субтитры СПАСИБО Kaspr

    • Огромная благодарность Media-Art-Club за созданный постер к раздаче!

    Скриншоты для ознакомления


    Релиз подготовил: |
    Размер скачиваемого торрента: 2.06 GB (2211200261 Bytes)

    Ничего себе поездочка / Joy Ride (2001) BDRip от MediaClub | D, P торрент скачать бесплатно
    загрузка...
    Рейтинг →
     (голосов: 1, оценка 5/5, голосовать можно 1 раз )

    Другие торренты по теме:

  • Ничего себе поездочка / Joy Ride (2001) HDTVRip-AVC | D, P
  • Ничего себе поездочка 2: Смерть впереди / Joy Ride 2: Dead Ahead (2008) WEB-DLRip-AVC
  • Ничего себе поездочка / Joy Ride (2001) BDRemux 1080p от MediaClub | D, P
  • Ничего себе поездочка / Joy Ride (2001) BDRip (AVC) от MediaClub | D, P
  • Ничего себе поездочка / Joy Ride (2001) BDRip 720p от MediaClub | D, P
  • Ничего себе поездочка / Joy Ride (2001) BDRip 1080p от MediaClub | D, P скачать через торрент бесплатно
  • Ничего себе поездочка / Joy Ride (2001) BDRip-AVC от Rulya74 скачать через торрент бесплатно
  • Ничего себе поездочка / Joy Ride (2001) BDRip от HQCLUB


    • Комментарии (0):

      Информация

      Информация

        Посетители, находящиеся в группе Гости, не могут оставлять комментарии в данной новости.

        ↓ Меню



        ↓ Опрос

        А Вы добавили сайт в закладки?
        Да
        Не


        Top 10 за месяц (Фильмы)