.
Авторизация | Регистрация
Хочешь лучшие торренты? Добавь свой email!
Добавить
» » Возвращение на остров Ним / Return to Nims Island (2013) HDRip от BitTracker | L2 скачать торрент бесплатно




    Возвращение на остров Ним / Return to Nims Island (2013) HDRip от BitTracker | L2 скачать торрент бесплатно

    Опубликовал: Админ | Дата: 27-02-2015, 11:09 | Просмотров: 315



    Детально о кино
    Русское название: Возвращение на остров Ним
    Русское название в мировом прокате: Return to Nim;s Island
    Создали в: 2013
    Категория жанра: семейный, приключения, комедия
    Главный режиссер: Брендан Мехер / Brendan Maher
    Актеры: Бинди Сью Ирвин, Тоби Уоллес, Мэттью Лиллард, Джон Уотерс, Себастьян Грегори, Джек Пирсон, Натан Деррик

    Сюжет фильма:
    14-летняя Ним по-прежнему настроена более чем решительно — она твердо намерена защитить свой остров и его лесных обителей от устроителей курорта и браконьеров. Но теперь героиня понимает, что в столь трудном деле, как спасение ее дома, она не может рассчитывать на помощь лишь одних животных. Так у Ним появляется друг-человек — Эдмунд, который сбежал на остров с материка.




    Снималось в: Австралия
    Киностудия: Nim;s Island, Mazur / Kaplan Company, Pictures in Paradise
    Время просмотра: 01:30:06
    Перевод текста: Любительское (двухголосое) sweet couple

    Файл
    Кодек для видео: XviD
    Качество фильма: HDRip (Исх. BDRip 1080p)
    Информация о видео: 656x368 (1.78:1), 23.976 fps, XviD build 50 ~1018 kbps avg, 0.18 bit/pixel
    Информация о звуке: 48 kHz, MPEG Layer 3, 2 ch, ~128.00 kbps avg
    Субтитры: нет

    Семпл

    MediaInfo

    Общее
    Полное имя : S:ФильмыВозвращение на остров Ним. 2013. HDRip (AleksSin).avi
    Формат : AVI
    Формат/Информация : Audio Video Interleave
    Размер файла : 745 Мбайт
    Продолжительность : 1 ч. 30 м.
    Общий поток : 1156 Кбит/сек
    Программа кодирования : VirtualDubMod 1.5.10.3 | www.virtualdub-fr.org || (build 2550/release)
    Библиотека кодирования : VirtualDubMod build 2550/release

    Видео
    Идентификатор : 0
    Формат : MPEG-4 Visual
    Профиль формата : Advanced Simple@L5
    Параметр BVOP формата : 2
    Параметр QPel формата : Нет
    Параметр GMC формата : Без точки перехода
    Параметр матрицы формата : Default (H.263)
    Идентификатор кодека : XVID
    Идентификатор кодека/Подсказка : XviD
    Продолжительность : 1 ч. 30 м.
    Битрейт : 1018 Кбит/сек
    Ширина : 656 пикс.
    Высота : 368 пикс.
    Соотношение сторон : 16:9
    Частота кадров : 23,976 кадр/сек
    Цветовое пространство : YUV
    Подвыборка цветности : 4:2:0
    Битовая глубина : 8 бит
    Тип развёртки : Прогрессивная
    Метод сжатия : С потерями
    Бит/(Пиксели*Кадры) : 0.176
    Размер потока : 656 Мбайт (88%)
    Библиотека кодирования : XviD 1.2.1 (UTC 2008-12-04)

    Аудио
    Идентификатор : 1
    Формат : MPEG Audio
    Версия формата : Version 1
    Профиль формата : Layer 3
    Идентификатор кодека : 55
    Идентификатор кодека/Подсказка : MP3
    Продолжительность : 1 ч. 30 м.
    Вид битрейта : Постоянный
    Битрейт : 128 Кбит/сек
    Каналы : 2 канала
    Частота : 48,0 КГц
    Метод сжатия : С потерями
    Размер потока : 82,5 Мбайт (11%)
    Выравнивание : Соединение по промежуткам
    Продолжительность промежутка : 42 мс. (1,00 видеокадр)
    Время предзагрузки промежутка : 504 ms
    Библиотека кодирования : LAME3.99r
    Залил: AleksSin
    Размер скачиваемого торрента: 744.72 MB (780894208 Bytes)


    Возвращение на остров Ним / Return to Nims Island (2013) HDRip от BitTracker | L2 торрент скачать бесплатно
    загрузка...
    Рейтинг →
     (голосов: 1, оценка 5/5, голосовать можно 1 раз )

    Другие торренты по теме:

  • Возвращение на базу / Взвейся в небо / R2B: Return 2 Base / Soar Into The Sun (2012) BDRip 1080p
  • Возвращение на остров Ним / Return to Nims Island (2013) DVDRip | L2
  • Возвращение на родину / Swades (2004) BDRip 1080p | P
  • Скрытые тайны: Возвращение на Титаник / Hidden Mysteries 10: Return to Titanic (2013) PC скачать через торрент бесплатно
  • Возвращение на остров Ним / Return to Nims Island (2013) BDRip 720p от CINEMANIA | L2
  • Возвращение на остров Ним / Return to Nims Island (2013) BDRip 1080p от CINEMANIA | L2 скачать через торрент бесплатно
  • Возвращение на остров Ним / Return to Nims Island (2013) HDRip | L2 от BitTracker скачать через торрент бесплатно
  • Возвращение на дикий пляж / Fit to Kill (1998) DVDRip от KinoRay Sheikn | P2


    • Комментарии (0):

      Информация

      Информация

        Посетители, находящиеся в группе Гости, не могут оставлять комментарии в данной новости.

        ↓ Меню



        ↓ Опрос

        А Вы добавили сайт в закладки?
        Да
        Не


        Top 10 за месяц (Фильмы)