.
Авторизация | Регистрация
Хочешь лучшие торренты? Добавь свой email!
Добавить
» » Пегги Сью вышла замуж / Peggy Sue Got Married (1986) BDRip-AVC от MediaClub | P, P2, A скачать через торрент бесплатно




    Пегги Сью вышла замуж / Peggy Sue Got Married (1986) BDRip-AVC от MediaClub | P, P2, A скачать через торрент бесплатно

    Опубликовал: Админ | Дата: 27-02-2015, 11:09 | Просмотров: 285



    Детально о кино
    Русское название: Пегги Сью вышла замуж
    Русское название в мировом прокате: Peggy Sue Got Married
    Создали в: 1986
    Категория жанра: Фэнтези, драма, мелодрама, комедия, музыка
    Главный режиссер: Френсис Форд Коппола
    Актеры: Кэтлин Тёрнер, Николас Кейдж, Бэрри Миллер, Кэтрин Хикс, Джоан Аллен, Кевин Дж. О’Коннор, Джим Керри, Лиза Джейн Перски, Люсинда Дженни, Уил Шрайнер, Барбара Харрис, Дон Мюррэй, София Коппола, Морин О’Салливан, Леон Эймс, Рэнди Борн, Хелен Хант, Дон Старк, Маршалл Креншоу, Крис Донато, Роберт Креншоу, Том Тили, Кен Грэнтхем, Джинджер Тейлор, Гленн Уитроу, Гарри Бейзил, Джон Кэрредин, Сачи Паркер, Вивьен Штраус, Морган Аптон, Билл Бонем, Джо Лерер

    Сюжет фильма:
    Иногда очень хочется прожить жизнь заново. Во всяком случае — кое-что подправить. У Пегги Сью всё хорошо — есть милые дети, есть работа. Вот только брак трещит по швам. Сразу после развода Пегги отправляется на бал выпускников школы, где ее с восторгом выбирают королевой. Это даёт ей шанс вернуться в конец 1950-х, когда Бич Бойз пели песенку Красотка Пегги Сью, а жизнь казалась такой безоблачной. Вновь очутившись на заре прекрасной юности, Пегги встречает своих родителей, а самое главное — юного Чарли. И понимает, что все было не напрасно…



    Снималось в: США / Delphi V Productions, Rastar Pictures, TriStar Pictures, Zoetrope Studios
    Время просмотра: 01:43:08
    Перевод текста: Профессиональный многоголосый, профессиональный двухголосый, авторский одноголосый

    Файл
    Кодек для видео: x264
    Качество фильма: BDRip (AVC)
    Информация о видео: MPEG-4 AVC, 3500 Кбит/с, 1024x554, 23.976 кадр/с
    Информация о звуке #1: Русский (AC3, 2 ch, 192 Кбит/с) / Профессиональный многоголосый (Первый канал)
    Информация о звуке #2: Русский (AC3, 2 ch, 192 Кбит/с) / Профессиональный двухголосый (Кармен видео)
    Информация о звуке #3: Русский (AC3, 2 ch, 192 Кбит/с) / Авторский одноголосый (А. Михалёв)
    Информация о звуке #4: Украинский (AC3, 2 ch, 192 Кбит/с) / Профессиональный многоголосый (Интер)
    Информация о звуке #5: Английский (AC3, 6 ch, 448 Кбит/с)
    Субтитры: Русские, английские

    Семпл

    MI
    Format : Matroska
    Format version : Version 4 / Version 2
    File size : 3.40 GiB
    Duration : 1h 43mn
    Overall bit rate : 4 719 Kbps
    Movie name : -=MediaClub - Odessit=-
    Encoded date : UTC 2013-11-04 12:16:19
    Writing application : mkvmerge v6.2.0 (;Promised Land;) built on Apr 28 2013 12:22:01
    Writing library : libebml v1.3.0 libmatroska v1.4.0

    Video
    ID : 1
    Format : AVC
    Format/Info : Advanced Video Codec
    Format profile : High@L4.1
    Format settings, CABAC : Yes
    Format settings, ReFrames : 10 frames
    Codec ID : V_MPEG4/ISO/AVC
    Duration : 1h 43mn
    Bit rate : 3 500 Kbps
    Width : 1 024 pixels
    Height : 554 pixels
    Display aspect ratio : 16:9
    Frame rate : 23.976 fps
    Color space : YUV
    Chroma subsampling : 4:2:0
    Bit depth : 8 bits
    Scan type : Progressive
    Bits/(Pixel*Frame) : 0.257
    Stream size : 2.46 GiB (72%)
    Writing library : x264 core 130 r2273 b3065e6
    Encoding settings : cabac=1 / ref=10 / deblock=1:-3:-3 / analyse=0x3:0x133 / me=umh / subme=11 / psy=1 / psy_rd=1.00:0.20 / mixed_ref=1 / me_range=48 / chroma_me=1 / trellis=2 / 8x8dct=1 / cqm=0 / deadzone=21,11 / fast_pskip=0 / chroma_qp_offset=-3 / threads=6 / lookahead_threads=1 / sliced_threads=0 / nr=0 / decimate=0 / interlaced=0 / bluray_compat=0 / constrained_intra=0 / bframes=9 / b_pyramid=2 / b_adapt=2 / b_bias=0 / direct=3 / weightb=1 / open_gop=0 / weightp=2 / keyint=240 / keyint_min=23 / scenecut=40 / intra_refresh=0 / rc=2pass / mbtree=0 / bitrate=3500 / ratetol=1.0 / qcomp=1.00 / qpmin=0 / qpmax=69 / qpstep=4 / cplxblur=20.0 / qblur=0.5 / ip_ratio=1.40 / pb_ratio=1.30 / aq=1:0.60
    Language : English

    Audio #1
    ID : 2
    Format : AC-3
    Format/Info : Audio Coding 3
    Mode extension : CM (complete main)
    Codec ID : A_AC3
    Duration : 1h 43mn
    Bit rate mode : Constant
    Bit rate : 192 Kbps
    Channel(s) : 2 channels
    Channel positions : Front: L R
    Sampling rate : 48.0 KHz
    Bit depth : 16 bits
    Compression mode : Lossy
    Stream size : 142 MiB (4%)
    Title : (многоголосый, Первый канал)
    Language : Russian

    Audio #2
    ID : 3
    Format : AC-3
    Format/Info : Audio Coding 3
    Mode extension : CM (complete main)
    Codec ID : A_AC3
    Duration : 1h 43mn
    Bit rate mode : Constant
    Bit rate : 192 Kbps
    Channel(s) : 2 channels
    Channel positions : Front: L R
    Sampling rate : 48.0 KHz
    Bit depth : 16 bits
    Compression mode : Lossy
    Stream size : 142 MiB (4%)
    Title : (двухголосый, Кармен Видео)
    Language : Russian

    Audio #3
    ID : 4
    Format : AC-3
    Format/Info : Audio Coding 3
    Mode extension : CM (complete main)
    Codec ID : A_AC3
    Duration : 1h 43mn
    Bit rate mode : Constant
    Bit rate : 192 Kbps
    Channel(s) : 2 channels
    Channel positions : Front: L R
    Sampling rate : 48.0 KHz
    Bit depth : 16 bits
    Compression mode : Lossy
    Stream size : 142 MiB (4%)
    Title : (авторский одноголосый, Михалев)
    Language : Russian

    Audio #4
    ID : 5
    Format : AC-3
    Format/Info : Audio Coding 3
    Mode extension : CM (complete main)
    Codec ID : A_AC3
    Duration : 1h 43mn
    Bit rate mode : Constant
    Bit rate : 192 Kbps
    Channel(s) : 2 channels
    Channel positions : Front: L R
    Sampling rate : 48.0 KHz
    Bit depth : 16 bits
    Compression mode : Lossy
    Stream size : 142 MiB (4%)
    Title : (многоголосый, Интер)
    Language : Ukrainian

    Audio #5
    ID : 6
    Format : AC-3
    Format/Info : Audio Coding 3
    Mode extension : CM (complete main)
    Codec ID : A_AC3
    Duration : 1h 43mn
    Bit rate mode : Constant
    Bit rate : 448 Kbps
    Channel(s) : 6 channels
    Channel positions : Front: L C R, Side: L R, LFE
    Sampling rate : 48.0 KHz
    Bit depth : 16 bits
    Compression mode : Lossy
    Stream size : 330 MiB (9%)
    Language : English

    Text #1
    ID : 7
    Format : UTF-8
    Codec ID : S_TEXT/UTF8
    Codec ID/Info : UTF-8 Plain Text
    Language : Russian

    Text #2
    ID : 8
    Format : UTF-8
    Codec ID : S_TEXT/UTF8
    Codec ID/Info : UTF-8 Plain Text
    Language : English

    Menu
    00:00:00.000 : en:Chapter 1
    00:03:18.823 : en:Chapter 2
    00:17:01.812 : en:Chapter 3
    00:19:48.729 : en:Chapter 4
    00:27:47.707 : en:Chapter 5
    00:31:21.170 : en:Chapter 6
    00:36:00.992 : en:Chapter 7
    00:37:44.095 : en:Chapter 8
    00:49:09.237 : en:Chapter 9
    00:54:22.175 : en:Chapter 10
    01:04:12.807 : en:Chapter 11
    01:10:09.622 : en:Chapter 12
    01:15:02.873 : en:Chapter 13
    01:24:25.769 : en:Chapter 14
    01:30:00.937 : en:Chapter 15
    01:36:43.839 : en:Chapter 16

    О релизе
    • За исходник спасибо ChuckNorriss (hdtracker.org)
    • За многоголоску первого канала спасибо ylnian (kinozal.tv)
    • За работу над дорогами DVO и Михалёва (на ремуксе был плавающий рассинхрон от 80 до -100 мс), а так же за подгонку и редактирование многоголоски Большое спасибо Anoobis

    • Сохранены оригинальные чаптеры как на Blu-ray

    • Огромная благодарность Media-Art-Club за созданный постер к раздаче!

    --------------------------------------------------------------------------------------
    x264 info: frame I:946 Avg QP:14.54 size: 95342
    x264 info: frame P:33837 Avg QP:16.79 size: 37978
    x264 info: frame B:113583 Avg QP:18.76 size: 11725
    --------------------------------------------------------------------------------------

    Скриншоты для ознакомления


    Релиз подготовил:
    Размер скачиваемого торрента: 3.40 GB (3649977126 Bytes)

    Пегги Сью вышла замуж / Peggy Sue Got Married (1986) BDRip-AVC от MediaClub | P, P2, A скачать через торрент бесплатно
    загрузка...
    Рейтинг →
     (голосов: 1, оценка 5/5, голосовать можно 1 раз )

    Другие торренты по теме:

  • Пегги Сью вышла замуж / Peggy Sue got married (1986) HDTVRip | Р
  • Пегги Сью вышла замуж / Peggy Sue Got Married (1986) BDRip 720p от MediaClub | P, P2, A скачать через торрент бесплатно
  • Пегги Сью вышла замуж / Peggy Sue Got Married (1986) BDRip-AVC от Rulya74 скачать через торрент бесплатно
  • Пегги Сью вышла замуж / Peggy Sue Got Married (1986) BDRip от HQCLUB
  • Серж Брюссоло - Пегги Сью и призраки: Сон демона (2 книга из 13) / Детская литература / 2012 / Вячеслав Герасимов / MP3


    • Комментарии (0):

      Информация

      Информация

        Посетители, находящиеся в группе Гости, не могут оставлять комментарии в данной новости.

        ↓ Меню



        ↓ Опрос

        А Вы добавили сайт в закладки?
        Да
        Не


        Top 10 за месяц (Фильмы)