.
Авторизация | Регистрация
Хочешь лучшие торренты? Добавь свой email!
Добавить
» » Дон Жуан де Марко / Don Juan DeMarco (1995) BDRip 720p by msltel | P, P2, A скачать торрент бесплатно




    Дон Жуан де Марко / Don Juan DeMarco (1995) BDRip 720p by msltel | P, P2, A скачать торрент бесплатно

    Опубликовал: Админ | Дата: 27-02-2015, 11:09 | Просмотров: 326



    Русское название: Дон Жуан де Марко
    Русское название в мировом прокате: Don Juan DeMarco
    Создали в: 1995
    Категория жанра: Драма, мелодрама, комедия
    Снималось в: США, American Zoetrope, New Line Cinema, Outlaw Productions
    Главный режиссер: Джереми Левен
    Актеры: Джонни Депп, Марлон Брандо, Фэй Данауэй, Жеральдин Пайя, Боб Диши, Рэйчел Тикотин, Талиса Сото, Марита Герати, Ричард С. Сарафьян, Тереза Хьюз

    Сюжет фильма: Романтическая мелодрама о взаимоотношениях стареющего врача-психиатра и его молодого пациента, который искренне считает себя Дон Жуаном. Дружба, возникшая между героями фильма, помогает вернуть врачу утраченную молодость духа, свежесть чувств и способность мечтать. Помешательство его подопечного окажется ни чем иным, как исключительным отношением к женщинам, удивительной способностью молодого человека доставить каждой своей избраннице несравнимое ни с чем удовольствие любви…

    Качество фильма: BDRip 720p
    Размер скачиваемого торрента: 5.47 ГБ
    Время просмотра: 01:37:11

    Информация о видео: MPEG-4 AVC, 4693 Кбит/с, 1280x720
    Информация о звуке 1: русский, 48 kHz, AC3, 2 ch, 192 kbps avg, Профессиональный многоголосый, TB3
    Информация о звуке 2: русский, 48 kHz, AC3, 6 ch, 448 kbps avg, Профессиональный двухголосый, Союз Видео
    Информация о звуке 3: русский, 48 kHz, AC3, 2 ch, 192 kbps avg, Авторский, Андрей Гаврилов
    Информация о звуке 4: русский, 48 kHz, AC3, 6 ch, 448 kbps avg, Авторский, Юрий Сербин

    Внешние файлы
    Информация о звуке: русский, 48 kHz, DTS, 6 ch, 1509 kbps avg, Авторский, Юрий Сербин
    Информация о звуке: английский, 48 kHz, AC3, 6 ch, 448 kbps avg, Оригинал
    Субтитры: русские
    Субтитры: английские (для слабослышащих)

    Исходник: posodobl (Кинозал)

    Сравнение с исходником



    Награды
    Оскар, 1996 год
    Номинации (1):
    Лучшая песня — Have You Ever Really Loved a Woman

    Золотой глобус, 1996 год
    Номинации (2):
    Лучшая песня — Have You Ever Really Loved a Woman?
    Лучший саундтрек
    MediaInfo Лог х264
    Общее
    Полное имя : E:VideoDon.Guan.DeMarko.1995.x264.BDRip.720pDon.Guan.DeMarko.1995.AVO.rus.Ю.Сербин.dts
    Формат : DTS
    Формат/Информация : Digital Theater Systems
    Размер файла : 1,02 Гбайт
    Продолжительность : 1 ч. 37 м.
    Режим общего битрейта : Постоянный
    Общий поток : 1509 Кбит/сек

    Аудио
    Формат : DTS
    Формат/Информация : Digital Theater Systems
    Режим : 16
    Параметр Endianness формата : Big
    Продолжительность : 1 ч. 37 м.
    Вид битрейта : Постоянный
    Битрейт : 1509 Кбит/сек
    Каналы : 6 каналов
    Расположение каналов : Front: L C R, Side: L R, LFE
    Частота : 48,0 КГц
    Битовая глубина : 24 бит
    Метод сжатия : С потерями
    Размер потока : 1,02 Гбайт (100%)

    Общее
    Полное имя : E:VideoDon.Guan.DeMarko.1995.x264.BDRip.720pDon.Guan.DeMarko.1995.eng.SDH.srt
    Размер файла : 181 Кбайт

    Общее
    Полное имя : E:VideoDon.Guan.DeMarko.1995.x264.BDRip.720pDon.Guan.DeMarko.1995.Original.eng.ac3
    Формат : AC-3
    Формат/Информация : Audio Coding 3
    Размер файла : 311 Мбайт
    Продолжительность : 1 ч. 37 м.
    Режим общего битрейта : Постоянный
    Общий поток : 448 Кбит/сек

    Аудио
    Формат : AC-3
    Формат/Информация : Audio Coding 3
    Расширение режима : CM (complete main)
    Параметр Endianness формата : Big
    Продолжительность : 1 ч. 37 м.
    Вид битрейта : Постоянный
    Битрейт : 448 Кбит/сек
    Каналы : 6 каналов
    Расположение каналов : Front: L C R, Side: L R, LFE
    Частота : 48,0 КГц
    Битовая глубина : 16 бит
    Метод сжатия : С потерями
    Размер потока : 311 Мбайт (100%)

    Общее
    Полное имя : E:VideoDon.Guan.DeMarko.1995.x264.BDRip.720pDon.Guan.DeMarko.1995.rus.srt
    Размер файла : 131 Кбайт

    Общее
    Уникальный идентификатор : 251248859859116561880298972600517083718 (0xBD04C5306329D81EA2B2A19B73C54246)
    Полное имя : E:VideoDon.Guan.DeMarko.1995.x264.BDRip.720pDon.Guan.DeMarko.1995.x264.BDRip.720p.mkv
    Формат : Matroska
    Версия формата : Version 4 / Version 2
    Размер файла : 4,14 Гбайт
    Продолжительность : 1 ч. 37 м.
    Общий поток : 6095 Кбит/сек
    Название фильма : Дон Жуан де Марко / Don Juan DeMarco / 1995 / BDRip -- STarankov
    Дата кодирования : UTC 2013-11-03 10:49:35
    Программа кодирования : mkvmerge v6.4.1 (;Omega Point;) built on Sep 16 2013 22:05:10
    Библиотека кодирования : libebml v1.3.0 libmatroska v1.4.1

    Видео
    Идентификатор : 1
    Формат : AVC
    Формат/Информация : Advanced Video Codec
    Профиль формата : High@L4.1
    Параметр CABAC формата : Да
    Параметр ReFrames формата : 9 кадров
    Идентификатор кодека : V_MPEG4/ISO/AVC
    Продолжительность : 1 ч. 37 м.
    Битрейт : 4693 Кбит/сек
    Ширина : 1280 пикселей
    Высота : 720 пикселей
    Соотношение сторон : 16:9
    Режим частоты кадров : Постоянный
    Частота кадров : 23,976 кадра/сек
    Цветовое пространство : YUV
    Субдискретизация насыщенности : 4:2:0
    Битовая глубина : 8 бит
    Тип развёртки : Прогрессивная
    Бит/(Пиксели*Кадры) : 0.212
    Размер потока : 3,19 Гбайт (77%)
    Библиотека кодирования : x264 core 133 r2334 a3ac64b
    Залил: msltel
    Размер скачиваемого торрента: 5.47 GB (5869721045 Bytes)


    Дон Жуан де Марко / Don Juan DeMarco (1995) BDRip 720p by msltel | P, P2, A торрент скачать бесплатно
    загрузка...
    Рейтинг →
     (голосов: 1, оценка 4/5, голосовать можно 1 раз )

    Другие торренты по теме:

  • Дон Жуан де Марко / Don Juan DeMarco (1995) HDRip от Scarabey | P2
  • Дон Жуан де Марко / Don Juan DeMarco (1995) BDRip 1080p от FREEISLAND скачать через торрент бесплатно
  • Дон Жуан де Марко / Don Juan DeMarco (1995) BDRip 1080p by msltel | P, P2, A
  • Если бы Дон-Жуан был женщиной / Don Juan ou Si Don Juan etait une femme (1973) DVDRip-AVC от =Т-Хzona=
  • Андре Моруа - Дон Жуан, или Жизнь Байрона (2010) DJVU
  • Если бы Дон-Жуан был женщиной… / Don Juan ou Si Don Juan tait une femme... (1973) DVDRip-AVC | P2


    • Комментарии (0):

      Информация

      Информация

        Посетители, находящиеся в группе Гости, не могут оставлять комментарии в данной новости.

        ↓ Меню



        ↓ Опрос

        А Вы добавили сайт в закладки?
        Да
        Не


        Top 10 за месяц (Фильмы)