.
Авторизация | Регистрация
Хочешь лучшие торренты? Добавь свой email!
Добавить
» » Орудие смерти / A-i-deul... (2011) DVDRip от Youtracker | P | лицензия скачать через торрент бесплатно




    Орудие смерти / A-i-deul... (2011) DVDRip от Youtracker | P | лицензия скачать через торрент бесплатно

    Опубликовал: Админ | Дата: 27-02-2015, 11:09 | Просмотров: 301



    Снималось в: Корея Южная / Noori Pictures
    Категория жанра: триллер, криминал
    Создали в: 2011
    Время просмотра: 02:06:17

    Перевод текста: профессиональный (многоголосый, закадровый)
    Субтитры подготовлены: нет
    Оригинальная аудиодорожка: нет

    Главный режиссер: Ли Гю Ман / Kyu-maan Lee

    Актеры: Пак Ён У, Рю Сын Рён, Сон Дон Иль, Сон Чжи Ру, Ким Ё Чжин, Пак Пён Ын, Ким Гу Тхэк, Ми-хён Пак, Ли Сан Хи, Ток-чжэ Чжо

    Сюжет: Фильм основан на реальной истории — нераскрытом убийстве, известном в Корее под названием исчезновение лягушачьих детей. В 1991 году пять учеников начальной школы сказали своим родителям, что собираются наловить лягушек на близлежащей горе. Они никогда не вернулись домой.



    Качество фильма: DVDRip / DVD9 R5
    Тип видео: AVI

    Информация о видео: 720x384 (1.85:1), 25.000 fps, XVID ~2028 kbps avg, 0.293 bit/pixel
    Информация о звуке: Русский 48 kHz, AC3, 6 ch, 448.00 kbps Constant

    Раздача от:
    MediaInfo

    Общее
    Полное имя : Orudie.smerti.2011.P.DVDRip_Youtracker_by_avproh.avi
    Формат : AVI
    Формат/Информация : Audio Video Interleave
    Профиль формата : OpenDML
    Размер файла : 2,19 Гбайт
    Продолжительность : 2 ч. 6 м.
    Общий поток : 2488 Кбит/сек
    Программа кодирования : VirtualDubMod 1.5.10.3 | www.virtualdub-fr.org || (build 2550/release)
    Библиотека кодирования : VirtualDubMod build 2550/release

    Видео
    Идентификатор : 0
    Формат : MPEG-4 Visual
    Профиль формата : Advanced Simple@L5
    Параметр BVOP формата : 1
    Параметр QPel формата : Нет
    Параметр GMC формата : Без точки перехода
    Параметр матрицы формата : Выборочная
    Идентификатор кодека : XVID
    Идентификатор кодека/Подсказка : XviD
    Продолжительность : 2 ч. 6 м.
    Битрейт : 2028 Кбит/сек
    Ширина : 720 пикселей
    Высота : 384 пикселя
    Соотношение сторон : 1,85:1
    Частота кадров : 25,000 кадров/сек
    Цветовое пространство : YUV
    Субдискретизация насыщенности : 4:2:0
    Битовая глубина : 8 бит
    Тип развёртки : Прогрессивная
    Метод сжатия : С потерями
    Бит/(Пиксели*Кадры) : 0.293
    Размер потока : 1,79 Гбайт (82%)
    Библиотека кодирования : XviD 73

    Аудио
    Идентификатор : 1
    Формат : AC-3
    Формат/Информация : Audio Coding 3
    Расширение режима : CM (complete main)
    Параметр Endianness формата : Big
    Идентификатор кодека : 2000
    Продолжительность : 2 ч. 6 м.
    Вид битрейта : Постоянный
    Битрейт : 448 Кбит/сек
    Каналы : 6 каналов
    Расположение каналов : Front: L C R, Side: L R, LFE
    Частота : 48,0 КГц
    Битовая глубина : 16 бит
    Метод сжатия : С потерями
    Размер потока : 405 Мбайт (18%)
    Выравнивание : Разделение по промежуткам
    Продолжительность промежутка : 40 мс. (1,00 видеокадр)
    Время предзагрузки промежутка : 500 мс.

    Скриншоты для ознакомления:



    Залил: avproh
    Размер скачиваемого торрента: 2.19 GB (2356545536 Bytes)

    Орудие смерти / A-i-deul... (2011) DVDRip от Youtracker | P | лицензия скачать через торрент бесплатно
    загрузка...
    Рейтинг →
     (голосов: 1, оценка 3/5, голосовать можно 1 раз )

    Другие торренты по теме:

  • Орудие смерти / A-i-deul... (2011) DVDRip-AVC от Youtracker | P | лицензия
  • Орудие смерти / A-i-deul... (2011) DVD9 R5 от New-Team | P | лицензия скачать через торрент бесплатно


    • Комментарии (0):

      Информация

      Информация

        Посетители, находящиеся в группе Гости, не могут оставлять комментарии в данной новости.

        ↓ Меню



        ↓ Опрос

        А Вы добавили сайт в закладки?
        Да
        Не


        Top 10 за месяц (Фильмы)