.
Авторизация | Регистрация
Хочешь лучшие торренты? Добавь свой email!
Добавить
» » Ночь страха 2: Свежая кровь / Fright Night 2: New Blood (2013) BDRip от Deadmauvlad | P скачать через торрент бесплатно




    Ночь страха 2: Свежая кровь / Fright Night 2: New Blood (2013) BDRip от Deadmauvlad | P скачать через торрент бесплатно

    Опубликовал: Админ | Дата: 27-02-2015, 11:09 | Просмотров: 419

    Ночь страха 2: Свежая кровь / Fright Night 2: New Blood (2013) BDRip


    Создали в: 2013
    Создали в: США / Appian Way, Double Feature Films, New Regency Pictures
    Категория жанра: Ужасы, Триллер, Драма
    Перевод текста: Многоголосый закадровый, профессиональный
    Озвучка / Автор перевода: Лицензия R5

    Дата мировой премьеры: 1 октября 2013
    Дата российской премьеры: 1 октября 2013
    Дата выхода DVD релиза: 31 октября 2013, Двадцатый Век Фокс СНГ

    Главный режиссер: Эдуардо Родригез
    Продюсер: Майкл Дж. Гаета, Элисон Р. Розензвеиг, Эми Крелл
    Актеры: Уилл Пэйн, Джейми Мюррэй, Шон Пауэр, Саша Паркинсон, Крис Уоллер, Джон-Кристиан Бейтман, Лиана Маргиняну, Алина Минзу, Ади Хостиук, Джоэль Коутинью

    Сюжет фильма:
    Молодые студенты колледжа внезапно узнают страшную правду о своем новом профессоре. Оказывается, их профессор — красивая молодая женщина Джерри Дэндридж — настоящая вампирша! Пытаясь донести это до остальных, ребята, сами того не желая, подписали себе смертный приговор. Потому что Джерри совершенно не хочет, чтобы ее тайна стала достоянием общественности…


    Время просмотра: 01:35:42
    Качество фильма видео: BDRip

    Информация о видеокодек: XviD 7.3
    Битрейт видео: ~957 kbps avg
    Размер скачиваемого торрента кадра: 688x386 (1.78:1)
    Информация о звукекодек: MP3
    Битрейт аудио: 128 kbp/s ,2 ch
    semple.avi
    Медиа Инфо
    Общее
    Полное имя : C:UsersdeadmauvladDesktopFRIGHT_NIGHT_2_Deadmauvlad_.avi
    Формат : AVI
    Формат/Информация : Audio Video Interleave
    Размер файла : 750 Мбайт
    Продолжительность : 1 ч. 35 м.
    Общий поток : 1096 Кбит/сек
    Режиссёр : Deadmauvlad
    Тема : Ночь Страха 2 Новая Кровь.BDRip Deadmauvlad
    Библиотека кодирования : VirtualDub build 35390/release
    Формат оригинала : IsCore
    Правообладатель : Deadmauvlad Team;s

    Видео
    Идентификатор : 0
    Формат : MPEG-4 Visual
    Профиль формата : Advanced Simple@L5
    Параметр BVOP формата : 2
    Параметр QPel формата : Да
    Параметр GMC формата : Без точки перехода
    Параметр матрицы формата : Default (MPEG)
    Режим смешивания : Сжатый битовый поток
    Идентификатор кодека : XVID
    Идентификатор кодека/Подсказка : XviD
    Продолжительность : 1 ч. 35 м.
    Битрейт : 958 Кбит/сек
    Ширина : 688 пикселей
    Высота : 386 пикселей
    Соотношение сторон : 16:9
    Частота кадров : 25,000 кадров/сек
    Цветовое пространство : YUV
    Субдискретизация насыщенности : 4:2:0
    Битовая глубина : 8 бит
    Тип развёртки : Прогрессивная
    Метод сжатия : С потерями
    Бит/(Пиксели*Кадры) : 0.144
    Размер потока : 656 Мбайт (87%)
    Библиотека кодирования : XviD 73

    Аудио
    Идентификатор : 1
    Формат : MPEG Audio
    Версия формата : Version 1
    Профиль формата : Layer 3
    Режим : Joint stereo
    Расширение режима : MS Stereo
    Идентификатор кодека : 55
    Идентификатор кодека/Подсказка : MP3
    Продолжительность : 1 ч. 35 м.
    Вид битрейта : Постоянный
    Битрейт : 128 Кбит/сек
    Каналы : 2 канала
    Частота : 44,1 КГц
    Метод сжатия : С потерями
    Размер потока : 87,6 Мбайт (12%)
    Выравнивание : Разделение по промежуткам
    Продолжительность промежутка : 40 мс. (1,00 видеокадр)
    Время предзагрузки промежутка : 500 мс.
    Библиотека кодирования : LAME3.98.2


    Скриншоты для ознакомления:


    Время раздачи: Как минимум до появления первых скачавших
    Релиз/автор рипа Deadmauvlad
    Залил: deadmauvlad
    Размер скачиваемого торрента: 750.10 MB (786536482 Bytes)

    Ночь страха 2: Свежая кровь / Fright Night 2: New Blood (2013) BDRip от Deadmauvlad | P скачать через торрент бесплатно
    загрузка...
    Рейтинг →
     (голосов: 1, оценка 4/5, голосовать можно 1 раз )

    Другие торренты по теме:

  • Ночь страха / Fright Night (2011) HDRip-AVC | D
  • Ночь страха 2 / Fright Night 2 (2013) BDRip 720p | L1
  • Ночь страха 2 / Fright Night 2 (2013) HDRip | L1
  • Ночь страха 2 / Fright Night 2 (2013) DVDRip | L1
  • Ночь страха 2 / Fright Night 2 (2013) HDRip | L2 скачать через торрент бесплатно
  • Ночь страха 2 / Fright Night 2 (2013) BDRip 720p | L2, L1 скачать через торрент бесплатно
  • Ночь страха 2 / Fright Night 2 (2013) BDRip 720p | L2
  • Ночь страха 2 / Fright Night 2 (2013) BDRip 720p | iTunes


    • Комментарии (0):

      Информация

      Информация

        Посетители, находящиеся в группе Гости, не могут оставлять комментарии в данной новости.

        ↓ Меню



        ↓ Опрос

        А Вы добавили сайт в закладки?
        Да
        Не


        Top 10 за месяц (Фильмы)