.
Авторизация | Регистрация
Хочешь лучшие торренты? Добавь свой email!
Добавить
» » Полицейские / Cop Land (1997) BDRip 720p by msltel | P, A, P1, L1 | Режиссёрская версия скачать торрент бесплатно




    Полицейские / Cop Land (1997) BDRip 720p by msltel | P, A, P1, L1 | Режиссёрская версия скачать торрент бесплатно

    Опубликовал: Админ | Дата: 27-02-2015, 11:09 | Просмотров: 316



    Русское название: Полицейские (Режиссёрская версия)
    Русское название в мировом прокате: Cop Land (Director;s cut)
    Создали в: 1997
    Категория жанра: Триллер, драма, криминал
    Снималось в: США, Across the River Productions, Miramax Films, Woods Entertainment
    Главный режиссер: Джеймс Мэнголд
    Актеры: Сильвестр Сталлоне, Харви Кейтель, Рэй Лиотта, Роберт Де Ниро, Питер Берг, Джанин Гарофало, Роберт Патрик, Майкл Рапапорт, Аннабелла Шиорра, Ноа Эммерик, Иди Фалко

    Сюжет фильма: Фредди Хефлин с детства восхищался полицейскими. Он так и не смог стать полицейским из-за частичной глухоты. Однако, благодаря своему покладистому и открытому характеру, он становится шерифом в пригороде штата Нью-Джерси под Нью-Йорком и живёт в городке, в основном населённом его коллегами из городской полиции Нью-Йорка. Нити расследования дел мафиозных копов приводят Мо Тилдена, следователя из отдела внутренней безопасности, в городок и к шерифу Фредди Хефлину. Хефлин начинает помогать Тилдену и вскоре обнаруживает, что его герои могут оказаться не столь непогрешимыми.

    Качество фильма: BDRip 720p
    Размер скачиваемого торрента: 9.34 ГБ
    Время просмотра: 01:56:18

    Информация о видео: MPEG-4 AVC, 4349 Kбит/с, 1280х692
    Информация о звуке 1: русский, 48 kHz, AC3, 6 ch, 448 kbps avg, Профессиональный многоголосый (с добавлением Андрея Гаврилова)
    Информация о звуке 2: русский, 48 kHz, AC3, 6 ch, 448 kbps avg, Авторский, Андрей Гаврилов
    Информация о звуке 3: русский, 48 kHz, AC3, 6 ch, 448 kbps avg, Авторский, Юрий Живов (с добавлением Андрея Гаврилова)

    Внешние файлы
    Информация о звуке: русский, 48 kHz, DTS, 6 ch, 1509 kbps avg, Профессиональный многоголосый (с добавлением Андрея Гаврилова)
    Информация о звуке: русский, 48 kHz, DTS, 6 ch, 1509 kbps avg, Авторский, Андрей Гаврилов
    Информация о звуке: русский, 48 kHz, DTS, 6 ch, 1509 kbps avg, Авторский, Юрий Живов (с добавлением Андрея Гаврилова)
    Информация о звуке: русский, 48 kHz, AC3, 6 ch, 448 kbps avg, Профессиональный одноголосый, Михаил Чадов по переводу Евгения Гаевского (с ненормативной лексикой)
    Информация о звуке: русский, 48 kHz, AC3, 6 ch, 384 kbps avg, Любительский одноголосый, den904 по переводу Евгения Гаевского (с ненормативной лексикой)
    Информация о звуке: английский, 48 kHz, AC3, 6 ch, 448 kbps avg, Оригинал
    Субтитры: русские (Евгений Гаевский, с ненормативной лексикой)
    Субтитры: английские

    Имеются неименованные главы/чаптеры.

    Исходник: Ambulacetus (HDTracker)

    Сравнение с исходником



    Из отзывов...
    ProActor

    Полицейские — пример отличной криминальной драмы, в которой не важен совсем скромный бюджет и редкие экшн-сцены. Создатели каким-то образом умудрились наделить кино неповторимой атмосферой спокойствия и неспешности повествования, при том что Полицейские - ни разу не скучный или занудный фильм. Такие фильмы просто приятно посмотреть, поначалу даже не вдаваясь в детали истории. А здесь перед нами качественный рассказ о человеке, который ради справедливости не посмотрит на мнение большинства и собственноручно добьется её во что бы то ни стало...

    Кинопоиск
    MediaInfo Лог х264
    Общее
    Полное имя : E:VideoPolicejskie.DirCut.1997.x264.BDRip.720pPolicejskie.DirCut.1997.AVO.rus.А.Гаврилов.dts
    Формат : DTS
    Формат/Информация : Digital Theater Systems
    Размер файла : 1,23 Гбайт
    Продолжительность : 1 ч. 56 м.
    Режим общего битрейта : Постоянный
    Общий поток : 1509 Кбит/сек

    Аудио
    Формат : DTS
    Формат/Информация : Digital Theater Systems
    Режим : 16
    Параметр Endianness формата : Big
    Продолжительность : 1 ч. 56 м.
    Вид битрейта : Постоянный
    Битрейт : 1509 Кбит/сек
    Каналы : 6 каналов
    Расположение каналов : Front: L C R, Side: L R, LFE
    Частота : 48,0 КГц
    Битовая глубина : 16 бит
    Метод сжатия : С потерями
    Размер потока : 1,23 Гбайт (100%)

    Общее
    Полное имя : E:VideoPolicejskie.DirCut.1997.x264.BDRip.720pPolicejskie.DirCut.1997.AVO.rus.Ю.Живов А.Гаврилов.dts
    Формат : DTS
    Формат/Информация : Digital Theater Systems
    Размер файла : 1,23 Гбайт
    Продолжительность : 1 ч. 56 м.
    Режим общего битрейта : Постоянный
    Общий поток : 1509 Кбит/сек

    Аудио
    Формат : DTS
    Формат/Информация : Digital Theater Systems
    Режим : 16
    Параметр Endianness формата : Big
    Продолжительность : 1 ч. 56 м.
    Вид битрейта : Постоянный
    Битрейт : 1509 Кбит/сек
    Каналы : 6 каналов
    Расположение каналов : Front: L C R, Side: L R, LFE
    Частота : 48,0 КГц
    Битовая глубина : 16 бит
    Метод сжатия : С потерями
    Размер потока : 1,23 Гбайт (100%)

    Общее
    Полное имя : E:VideoPolicejskie.DirCut.1997.x264.BDRip.720pPolicejskie.DirCut.1997.eng.srt
    Размер файла : 190 Кбайт

    Общее
    Полное имя : E:VideoPolicejskie.DirCut.1997.x264.BDRip.720pPolicejskie.DirCut.1997.MVO А.Гаврилов.rus.dts
    Формат : DTS
    Формат/Информация : Digital Theater Systems
    Размер файла : 1,23 Гбайт
    Продолжительность : 1 ч. 56 м.
    Режим общего битрейта : Постоянный
    Общий поток : 1509 Кбит/сек

    Аудио
    Формат : DTS
    Формат/Информация : Digital Theater Systems
    Режим : 16
    Параметр Endianness формата : Big
    Продолжительность : 1 ч. 56 м.
    Вид битрейта : Постоянный
    Битрейт : 1509 Кбит/сек
    Каналы : 6 каналов
    Расположение каналов : Front: L C R, Side: L R, LFE
    Частота : 48,0 КГц
    Битовая глубина : 16 бит
    Метод сжатия : С потерями
    Размер потока : 1,23 Гбайт

    Общее
    Полное имя : E:VideoPolicejskie.DirCut.1997.x264.BDRip.720pPolicejskie.DirCut.1997.Original.eng.ac3
    Формат : AC-3
    Формат/Информация : Audio Coding 3
    Размер файла : 373 Мбайт
    Продолжительность : 1 ч. 56 м.
    Режим общего битрейта : Постоянный
    Общий поток : 448 Кбит/сек

    Аудио
    Формат : AC-3
    Формат/Информация : Audio Coding 3
    Расширение режима : CM (complete main)
    Параметр Endianness формата : Big
    Продолжительность : 1 ч. 56 м.
    Вид битрейта : Постоянный
    Битрейт : 448 Кбит/сек
    Каналы : 6 каналов
    Расположение каналов : Front: L C R, Side: L R, LFE
    Частота : 48,0 КГц
    Битовая глубина : 16 бит
    Метод сжатия : С потерями
    Размер потока : 373 Мбайт (100%)

    Общее
    Полное имя : E:VideoPolicejskie.DirCut.1997.x264.BDRip.720pPolicejskie.DirCut.1997.rus.Е.Гаевский, с матами.srt
    Формат : SubRip
    Размер файла : 125 Кбайт

    Текст
    Формат : SubRip
    Метод сжатия : Без потерь

    Общее
    Полное имя : E:VideoPolicejskie.DirCut.1997.x264.BDRip.720pPolicejskie.DirCut.1997.VO.rus.den904 по переводу Е.Гаевского.ac3
    Формат : AC-3
    Формат/Информация : Audio Coding 3
    Размер файла : 319 Мбайт
    Продолжительность : 1 ч. 56 м.
    Режим общего битрейта : Постоянный
    Общий поток : 384 Кбит/сек

    Аудио
    Формат : AC-3
    Формат/Информация : Audio Coding 3
    Расширение режима : CM (complete main)
    Параметр Endianness формата : Big
    Продолжительность : 1 ч. 56 м.
    Вид битрейта : Постоянный
    Битрейт : 384 Кбит/сек
    Каналы : 6 каналов
    Расположение каналов : Front: L C R, Side: L R, LFE
    Частота : 48,0 КГц
    Битовая глубина : 16 бит
    Метод сжатия : С потерями
    Размер потока : 319 Мбайт (100%)

    Общее
    Полное имя : E:VideoPolicejskie.DirCut.1997.x264.BDRip.720pPolicejskie.DirCut.1997.VO.rus.М.Чадов по переводу Е.Гаевского.ac3
    Формат : AC-3
    Формат/Информация : Audio Coding 3
    Размер файла : 373 Мбайт
    Продолжительность : 1 ч. 56 м.
    Режим общего битрейта : Постоянный
    Общий поток : 448 Кбит/сек

    Аудио
    Формат : AC-3
    Формат/Информация : Audio Coding 3
    Расширение режима : CM (complete main)
    Параметр Endianness формата : Big
    Продолжительность : 1 ч. 56 м.
    Вид битрейта : Постоянный
    Битрейт : 448 Кбит/сек
    Каналы : 6 каналов
    Расположение каналов : Front: L C R, Side: L R, LFE
    Частота : 48,0 КГц
    Битовая глубина : 16 бит
    Метод сжатия : С потерями
    Размер потока : 373 Мбайт (100%)

    Общее
    Уникальный идентификатор : 237182274204161578656002715668998171697 (0xB26FA4F87F468C98980CDCA02C76AC31)
    Полное имя : E:VideoPolicejskie.DirCut.1997.x264.BDRip.720pPolicejskie.DirCut.1997.x264.BDRip.720p.mkv
    Формат : Matroska
    Версия формата : Version 4 / Version 2
    Размер файла : 4,62 Гбайт
    Продолжительность : 1 ч. 56 м.
    Общий поток : 5693 Кбит/сек
    Название фильма : Полицейские / Cop Land / 1997 / BDRip -- STarankov
    Дата кодирования : UTC 2013-11-01 03:08:41
    Программа кодирования : mkvmerge v6.4.1 (;Omega Point;) built on Sep 16 2013 22:05:10
    Библиотека кодирования : libebml v1.3.0 libmatroska v1.4.1

    Видео
    Идентификатор : 1
    Формат : AVC
    Формат/Информация : Advanced Video Codec
    Профиль формата : High@L4.1
    Параметр CABAC формата : Да
    Параметр ReFrames формата : 9 кадров
    Идентификатор кодека : V_MPEG4/ISO/AVC
    Продолжительность : 1 ч. 56 м.
    Битрейт : 4349 Кбит/сек
    Ширина : 1280 пикселей
    Высота : 692 пикселя
    Соотношение сторон : 1,85:1
    Режим частоты кадров : Постоянный
    Частота кадров : 23,976 кадра/сек
    Цветовое пространство : YUV
    Субдискретизация насыщенности : 4:2:0
    Битовая глубина : 8 бит
    Тип развёртки : Прогрессивная
    Бит/(Пиксели*Кадры) : 0.205
    Размер потока : 3,44 Гбайт (74%)
    Библиотека кодирования : x264 core 133 r2334 a3ac64b
    Залил: msltel
    Размер скачиваемого торрента: 9.34 GB (10031135267 Bytes)


    Полицейские / Cop Land (1997) BDRip 720p by msltel | P, A, P1, L1 | Режиссёрская версия торрент скачать бесплатно
    загрузка...
    Рейтинг →
     (голосов: 1, оценка 3/5, голосовать можно 1 раз )

    Другие торренты по теме:

  • Бруклинские полицейские / Brooklyns Finest (2009) BDRip 720p от leonardo 59 Scarabey
  • Полицейские / Полицейский городок / Cop Land (1997) НDRip от Scarabey | Р
  • Полицейские / Cop Land (1997) BDRip by msltel | P, A, P1, L1 | Режиссёрская версия
  • Полицейские / Cop Land (1997) BDRip 1080p by msltel | P, A, P1, L1 | Режиссёрская версия скачать через торрент бесплатно
  • Бруклинские полицейские / Brooklyns Finest (2009) HDRip от Scarabey скачать через торрент бесплатно
  • Бруклинские полицейские / Brooklyns Finest (2009) BDRip от HQ-ViDEO скачать через торрент бесплатно
  • Бруклинские полицейские / Brooklyns Finest (2009) DVDRip | A | Open Matte
  • Полицейские / Cop Land (1997) HDRip | Гаврилов | Directors cut


    • Комментарии (0):

      Информация

      Информация

        Посетители, находящиеся в группе Гости, не могут оставлять комментарии в данной новости.

        ↓ Меню



        ↓ Опрос

        А Вы добавили сайт в закладки?
        Да
        Не


        Top 10 за месяц (Фильмы)