.
Авторизация | Регистрация
Хочешь лучшие торренты? Добавь свой email!
Добавить
» » Гарри Браун / Harry Brown (2009) BDRip 720p by msltel | P, A скачать торрент бесплатно




    Гарри Браун / Harry Brown (2009) BDRip 720p by msltel | P, A скачать торрент бесплатно

    Опубликовал: Админ | Дата: 27-02-2015, 11:09 | Просмотров: 367



    Русское название: Гарри Браун
    Русское название в мировом прокате: Harry Brown
    Создали в: 2009
    Категория жанра: Триллер, драма, криминал
    Снималось в: Великобритания, Marv Films, UK Film Council, HanWay Films
    Главный режиссер: Дэниэл Барбер
    Актеры: Майкл Кейн, Эмили Мортимер, Чарли Крид-Майлз, Дэвид Брэдли (I), Иэн Глен, Шон Харрис, Бен Дрю, Джек О’Коннелл, Ямал Дауни, Ли Оакес, Джозеф Гилган, Лиам Каннингэм, Лиз Дэниелс, Марвин Кэмпбелл, Лауретта Гэвин, Радослав Каим, Клер Хэкетт, Эшли МакГуайр, Раза Джеффри, Мартин Вильде, Сиан Милн, Клариса Клэйтон, Сью Фарр, Мишель Тейт, Орла О’Рурк, Роб Хант, Гари Хоптру, Гари Коннери, Аманда Фостер, Чарльз Рамсей, Пит Форд, Энди Мерчант, Эрол Мехмет, Крис Поллард, Эми Стил, Роберт Стайлз, Энди Уэрхем, Тони Мессиа, Белинда МакГинли, Эшли Джордж, Эми Эдж, Ли Эдгар, Мартин Хиткот, Карл Родс, Лоуренс Ричардсон, Крис Уилсон

    Сюжет фильма: Он прожил свою жизнь, не боясь смотреть в лицо смерти. Но та смерть была в честном бою, с таким же противником, как и он сам. Старость изменила всё,… даже смерть, которая приходит теперь исподтишка. В парке, во дворе дома, в подземном переходе. Смерть жены и ранняя потеря дочери принесли в жизнь печаль, а зверское убийство друга ожесточило сердце. А всему виной то поколение, которое годится ему во внуки, которое кроваво и подло властвует в том маленьком мирке, где живёт Гарри Браун. Осознав, что терять больше нечего, старик Браун выходит на бой. И первой целью его становятся те, кто превращает детей в бессердечных убийц...

    Качество фильма: BDRip 720p
    Размер скачиваемого торрента: 4.33 ГБ
    Время просмотра: 01:42:46

    Информация о видео: MPEG-4 AVC, 3643 Кбит/с, 1280x542
    Информация о звуке 1: русский, 48 kHz, AC3, 6 ch, 448 kbps avg, Профессиональный многоголосый, ВВС Спб
    Информация о звуке 2: русский, 48 kHz, AC3, 2 ch, 192 kbps avg, Авторский, Андрей Гаврилов
    Информация о звуке 3: русский, 48 kHz, AC3, 6 ch, 448 kbps avg, Авторский, Юрий Сербин

    Внешние файлы
    Информация о звуке: русский, 48 kHz, DTS, 6 ch, 755 kbps avg, Профессиональный многоголосый, ВВС Спб
    Информация о звуке: английский, 48 kHz, AC3, 6 ch, 448 kbps avg, Оригинал
    Субтитры: русские
    Субтитры: английские

    Исходник: ask_74 (Рутрекер)

    Сравнение с исходником



    Из отзывов...
    RomeoWhite

    Да… это про нашу жизнь

    Перед просмотром название фильма у меня вызвало ассоциации с фильмом Гран Торино. В принципе, где-то, эти два фильма похожи: тут играет в возрасте Майкл Кейн, там играет такого же примерно типа — Клинт Иствуд. Но всё же, Клинт - более харизматичный персонаж. Поэтому невольно на протяжении всего кино приходили в голову кадры из Гран Торино… А сюжет этого фильма не в новинку, довольно много снято на похожую тематику, в том числе и в нашем кинематографе, например, Ворошиловский стрелок 1998 года...
    Кино получилось довольно неплохим, держит в напряжении до конца, но не хватило оригинальности сюжета.

    7 из 10

    Кинопоиск
    MediaInfo Лог х264
    Общее
    Полное имя : E:VideoGarri.Braun.2009.x264.BDRip.720pGarri.Braun.2009.eng.SDH.srt
    Размер файла : 137 Кбайт

    Общее
    Полное имя : E:VideoGarri.Braun.2009.x264.BDRip.720pGarri.Braun.2009.MVO.rus.BBC Спб.dts
    Формат : DTS
    Формат/Информация : Digital Theater Systems
    Размер файла : 555 Мбайт
    Продолжительность : 1 ч. 42 м.
    Режим общего битрейта : Постоянный
    Общий поток : 755 Кбит/сек

    Аудио
    Формат : DTS
    Формат/Информация : Digital Theater Systems
    Режим : 16
    Параметр Endianness формата : Big
    Продолжительность : 1 ч. 42 м.
    Вид битрейта : Постоянный
    Битрейт : 755 Кбит/сек
    Каналы : 6 каналов
    Расположение каналов : Front: L C R, Side: L R, LFE
    Частота : 48,0 КГц
    Битовая глубина : 24 бит
    Метод сжатия : С потерями
    Размер потока : 555 Мбайт (100%)

    Общее
    Полное имя : E:VideoGarri.Braun.2009.x264.BDRip.720pGarri.Braun.2009.Original.eng.ac3
    Формат : AC-3
    Формат/Информация : Audio Coding 3
    Размер файла : 329 Мбайт
    Продолжительность : 1 ч. 42 м.
    Режим общего битрейта : Постоянный
    Общий поток : 448 Кбит/сек

    Аудио
    Формат : AC-3
    Формат/Информация : Audio Coding 3
    Расширение режима : CM (complete main)
    Параметр Endianness формата : Big
    Продолжительность : 1 ч. 42 м.
    Вид битрейта : Постоянный
    Битрейт : 448 Кбит/сек
    Каналы : 6 каналов
    Расположение каналов : Front: L C R, Side: L R, LFE
    Частота : 48,0 КГц
    Битовая глубина : 16 бит
    Метод сжатия : С потерями
    Размер потока : 329 Мбайт (100%)

    Общее
    Полное имя : E:VideoGarri.Braun.2009.x264.BDRip.720pGarri.Braun.2009.rus.srt
    Размер файла : 95,6 Кбайт

    Общее
    Уникальный идентификатор : 225766775789462698028216304281083235085 (0xA9D91971E3C1D012A04AC673A28CCB0D)
    Полное имя : E:VideoGarri.Braun.2009.x264.BDRip.720pGarri.Braun.2009.x264.BDRip.720p.mkv
    Формат : Matroska
    Версия формата : Version 4 / Version 2
    Размер файла : 3,47 Гбайт
    Продолжительность : 1 ч. 42 м.
    Общий поток : 4827 Кбит/сек
    Название фильма : Гарри Браун / Harry Brown / 2009 / BDRip -- STarankov
    Дата кодирования : UTC 2013-11-01 09:56:23
    Программа кодирования : mkvmerge v6.4.1 (;Omega Point;) built on Sep 16 2013 22:05:10
    Библиотека кодирования : libebml v1.3.0 libmatroska v1.4.1

    Видео
    Идентификатор : 1
    Формат : AVC
    Формат/Информация : Advanced Video Codec
    Профиль формата : High@L4.1
    Параметр CABAC формата : Да
    Параметр ReFrames формата : 11 кадров
    Идентификатор кодека : V_MPEG4/ISO/AVC
    Продолжительность : 1 ч. 42 м.
    Битрейт : 3643 Кбит/сек
    Ширина : 1280 пикселей
    Высота : 542 пикселя
    Соотношение сторон : 2,35:1
    Режим частоты кадров : Постоянный
    Частота кадров : 23,976 кадра/сек
    Цветовое пространство : YUV
    Субдискретизация насыщенности : 4:2:0
    Битовая глубина : 8 бит
    Тип развёртки : Прогрессивная
    Бит/(Пиксели*Кадры) : 0.219
    Размер потока : 2,62 Гбайт (75%)
    Библиотека кодирования : x264 core 133 r2334 a3ac64b
    Залил: msltel
    Размер скачиваемого торрента: 4.33 GB (4647796320 Bytes)


    Гарри Браун / Harry Brown (2009) BDRip 720p by msltel | P, A торрент скачать бесплатно
    загрузка...
    Рейтинг →
     (голосов: 1, оценка 5/5, голосовать можно 1 раз )

    Другие торренты по теме:

  • Гарри Браун / Harry Brown (2009) BDRip 1080p | P, A скачать через торрент бесплатно
  • Гарри Браун / Harry Brown (2009) HDRip от Scarabey | P скачать через торрент бесплатно
  • Гарри Браун / Harry Brown (2009) BDRip by msltel | P, A скачать через торрент бесплатно
  • Гарри Браун / Harry Brown (2009) BDRip 1080p by msltel | P, A скачать через торрент бесплатно
  • Гарри Браун / Harry Brown (2009) BDRip 1080p | P, A


    • Комментарии (0):

      Информация

      Информация

        Посетители, находящиеся в группе Гости, не могут оставлять комментарии в данной новости.

        ↓ Меню



        ↓ Опрос

        А Вы добавили сайт в закладки?
        Да
        Не


        Top 10 за месяц (Фильмы)