.
Авторизация | Регистрация
Хочешь лучшие торренты? Добавь свой email!
Добавить
» » Тайное влечение / Adore (2013) BDRip (AVC) от MediaClub | L1 скачать через торрент бесплатно




    Тайное влечение / Adore (2013) BDRip (AVC) от MediaClub | L1 скачать через торрент бесплатно

    Опубликовал: Админ | Дата: 27-02-2015, 11:09 | Просмотров: 312



    Детально о кино
    Русское название: Тайное влечение
    Русское название в мировом прокате: Adore
    Создали в: 2013
    Категория жанра: Драма
    Главный режиссер: Анн Фонтэн
    Актеры: Робин Райт, Наоми Уоттс, Ксавьер Сэмюэл, Бен Мендельсон, Софи Лоу, Джеймс Фрешвилл, Джессика Тоуви, Гари Свит, Элисон Стэнден, Дэйн Иде

    Сюжет фильма:
    Главные героини фильма — Лил и Роз — две давние подруги, которые влюбляются в сыновей друг друга. Из-за страха быть осуждёнными обществом, женщины скрывают свои отношения в тайне на протяжении нескольких лет до тех пор, пока их секреты не становятся достоянием общественности. Это открытие не только грозит разрушить жизни обеих подруг, но и ставит перед сложным выбором их сыновей, которые должны решить: жить ли им по проторенной дороге или же следовать своим истинным желаниям.



    Снималось в: Австралия, Франция, Canal fr, Cin?@, Cin?
    Время просмотра: 01:51:15
    Перевод текста: Любительский одноголосый

    Файл
    Кодек для видео: x264
    Качество фильма: BDRip (AVC) Adore.2013.1080p.BluRay.REMUX.AVC.DTS-HD.MA.5.1- MOOS
    Информация о видео: MPEG-4 AVC, 2500 Кбит/с, 1024x428, 23.976 кадр/с
    Информация о звуке: Русский, английский (АС3, 6 ch, 384 Кбит/с)
    Субтитры: Английские, французские

    Семпл

    MI
    ----------------------------------------------------------------------
    ---Information 31.10.2013 17:38:44 x264 info: frame I:952 Avg QP:14.40 size: 74716
    ---Information 31.10.2013 17:38:44 x264 info: frame P:33322 Avg QP:17.43 size: 27934
    ---Information 31.10.2013 17:38:44 x264 info: frame B:125921 Avg QP:18.36 size: 8576
    ----------------------------------------------------------------------

    Format : Matroska
    Format version : Version 4 / Version 2
    File size : 2.54 GiB
    Duration : 1h 51mn
    Overall bit rate : 3 265 Kbps
    Movie name : -=MediaClub - Odessit=-
    Encoded date : UTC 2013-10-31 13:59:31
    Writing application : mkvmerge v6.2.0 (;Promised Land;) built on Apr 28 2013 12:22:01
    Writing library : libebml v1.3.0 libmatroska v1.4.0

    Video
    ID : 1
    Format : AVC
    Format/Info : Advanced Video Codec
    Format profile : High@L4.1
    Format settings, CABAC : Yes
    Format settings, ReFrames : 10 frames
    Codec ID : V_MPEG4/ISO/AVC
    Duration : 1h 51mn
    Bit rate : 2 500 Kbps
    Width : 1 024 pixels
    Height : 428 pixels
    Display aspect ratio : 2.40:1
    Frame rate : 24.000 fps
    Color space : YUV
    Chroma subsampling : 4:2:0
    Bit depth : 8 bits
    Scan type : Progressive
    Bits/(Pixel*Frame) : 0.238
    Stream size : 1.89 GiB (74%)
    Writing library : x264 core 133 r2334 a3ac64b
    Encoding settings : cabac=1 / ref=10 / deblock=1:-2:-2 / analyse=0x3:0x133 / me=umh / subme=11 / psy=1 / psy_rd=1.00:0.20 / mixed_ref=1 / me_range=48 / chroma_me=1 / trellis=2 / 8x8dct=1 / cqm=0 / deadzone=21,11 / fast_pskip=0 / chroma_qp_offset=-3 / threads=6 / lookahead_threads=1 / sliced_threads=0 / nr=0 / decimate=0 / interlaced=0 / bluray_compat=0 / constrained_intra=0 / bframes=9 / b_pyramid=2 / b_adapt=2 / b_bias=0 / direct=3 / weightb=1 / open_gop=0 / weightp=2 / keyint=240 / keyint_min=24 / scenecut=40 / intra_refresh=0 / rc=2pass / mbtree=0 / bitrate=2500 / ratetol=1.0 / qcomp=0.60 / qpmin=0 / qpmax=69 / qpstep=4 / cplxblur=20.0 / qblur=0.5 / ip_ratio=1.40 / pb_ratio=1.30 / aq=1:1.00
    Language : English

    Audio #1
    ID : 2
    Format : AC-3
    Format/Info : Audio Coding 3
    Mode extension : CM (complete main)
    Codec ID : A_AC3
    Duration : 1h 51mn
    Bit rate mode : Constant
    Bit rate : 384 Kbps
    Channel(s) : 6 channels
    Channel positions : Front: L C R, Side: L R, LFE
    Sampling rate : 48.0 KHz
    Bit depth : 16 bits
    Compression mode : Lossy
    Stream size : 306 MiB (12%)
    Title : Любительский одноголосый
    Language : Russian

    Audio #2
    ID : 3
    Format : AC-3
    Format/Info : Audio Coding 3
    Mode extension : CM (complete main)
    Codec ID : A_AC3
    Duration : 1h 51mn
    Bit rate mode : Constant
    Bit rate : 384 Kbps
    Channel(s) : 6 channels
    Channel positions : Front: L C R, Side: L R, LFE
    Sampling rate : 48.0 KHz
    Bit depth : 16 bits
    Compression mode : Lossy
    Stream size : 306 MiB (12%)
    Language : English

    Text #1
    ID : 4
    Format : UTF-8
    Codec ID : S_TEXT/UTF8
    Codec ID/Info : UTF-8 Plain Text
    Language : English

    Text #2
    ID : 5
    Format : UTF-8
    Codec ID : S_TEXT/UTF8
    Codec ID/Info : UTF-8 Plain Text
    Language : French

    Menu
    00:00:00.000 : en:Chapter 1
    00:08:27.958 : en:Chapter 2
    00:19:11.291 : en:Chapter 3
    00:26:41.583 : en:Chapter 4
    00:36:58.666 : en:Chapter 5
    00:45:09.500 : en:Chapter 6
    00:55:25.875 : en:Chapter 7
    01:05:14.125 : en:Chapter 8
    01:15:39.833 : en:Chapter 9
    01:24:48.208 : en:Chapter 10
    01:33:30.750 : en:Chapter 11
    01:44:48.625 : en:Chapter 12

    Скриншоты для ознакомления


    Релиз подготовил:
    Размер скачиваемого торрента: 2.54 GB (2724418464 Bytes)

    Тайное влечение / Adore (2013) BDRip (AVC) от MediaClub | L1 скачать через торрент бесплатно
    загрузка...
    Рейтинг →
     (голосов: 1, оценка 3/5, голосовать можно 1 раз )

    Другие торренты по теме:

  • Тайное влечение / Adore (2013) BDRip 1080p от CINEMANIA | L1 скачать через торрент бесплатно
  • Тайное влечение / Adore (2013) BDRip 720p | L1 скачать через торрент бесплатно
  • Тайное влечение / Adore (2013) HDRip | L1 скачать через торрент бесплатно
  • Тайное влечение / Adore (2013) BDRip 720p от Leonardo and Scarabey | L1 скачать через торрент бесплатно
  • Тайное влечение / Adore (2013) HDRip от Scarabey | L1
  • Тайное влечение / Adore (2013) HDRip от Scarabey | L1
  • Тайное влечение / Adore (2013) BDRip 1080p от CINEMANIA | D скачать через торрент бесплатно
  • Тайное влечение / Adore (2013) BDRip 720p от CINEMANIA | D скачать через торрент бесплатно


    • Комментарии (0):

      Информация

      Информация

        Посетители, находящиеся в группе Гости, не могут оставлять комментарии в данной новости.

        ↓ Меню



        ↓ Опрос

        А Вы добавили сайт в закладки?
        Да
        Не


        Top 10 за месяц (Фильмы)