.
Авторизация | Регистрация
Хочешь лучшие торренты? Добавь свой email!
Добавить
» » Каин. Исключение из правил / Cain (2012) SATRip | P скачать через торрент бесплатно




    Каин. Исключение из правил / Cain (2012) SATRip | P скачать через торрент бесплатно

    Опубликовал: Админ | Дата: 27-02-2015, 11:09 | Просмотров: 419



    Детально о кино
    Русское название: Каин. Исключение из правил
    Русское название в мировом прокате: Cain
    Создали в: 2012
    Категория жанра: криминал
    Главный режиссер: Бертран Артурус
    Актеры: Брюно Дебранд, Жюли Деларм, Фредерик Пэльжэ, Смади Вольфман, Анн Суарес, Ив Верховен, Александр Тибо, Марушка Детмерс

    Сюжет фильма:
    Полицейский сериал с необычным главным героем — капитаном угрозыска, прикованным к инвалидной коляске после аварии на мотоцикле, на котором он значительно превысил скорость, находясь под воздействием наркотиков.

    С черным юмором и сарказмом относясь к своей инвалидности, Фред Каин цинично расследует сложные преступления и убийства в мире двуногих…



    Снималось в: Франция
    Время просмотра: ~55 минут серия
    Перевод текста: Профессиональный (многоголосый закадровый) Компания Игмар для Много ТВ

    Файл
    Кодек для видео: XviD / AC3
    Качество фильма: SATRip
    Информация о видео: XviD, 720x400 (16:9), 25 fps, ~1500 kbps
    Информация о звуке: AC-3, 2 ch, 192 kbps
    Sample
    Скриншоты для ознакомления
    MediaInfo
    General
    Complete name : /media/torrent/Kain.Isklyuchenie.iz.pravil.2012.XviD.dj_zum/01.avi
    Format : AVI
    Format/Info : Audio Video Interleave
    File size : 651 MiB
    Duration : 54mn 9s
    Overall bit rate : 1 680 Kbps
    Writing application : VirtualDubMod 1.5.10.3 | www.virtualdub-fr.org || (build 2550/release)
    Writing library : VirtualDubMod build 2550/release

    Video
    ID : 0
    Format : MPEG-4 Visual
    Format profile : Advanced Simple@L5
    Format settings, BVOP : 2
    Format settings, QPel : No
    Format settings, GMC : No warppoints
    Format settings, Matrix : Custom
    Codec ID : XVID
    Codec ID/Hint : XviD
    Duration : 54mn 9s
    Bit rate : 1 478 Kbps
    Width : 720 pixels
    Height : 400 pixels
    Display aspect ratio : 16:9
    Frame rate : 25.000 fps
    Color space : YUV
    Chroma subsampling : 4:2:0
    Bit depth : 8 bits
    Scan type : Progressive
    Compression mode : Lossy
    Bits/(Pixel*Frame) : 0.205
    Stream size : 573 MiB (88%)
    Writing library : XviD 1.2.1 (UTC 2008-12-04)

    Audio
    ID : 1
    Format : AC-3
    Format/Info : Audio Coding 3
    Mode extension : CM (complete main)
    Format settings, Endianness : Big
    Codec ID : 2000
    Duration : 54mn 9s
    Bit rate mode : Constant
    Bit rate : 192 Kbps
    Channel(s) : 2 channels
    Channel positions : Front: L R
    Sampling rate : 48.0 KHz
    Bit depth : 16 bits
    Compression mode : Lossy
    Stream size : 74.4 MiB (11%)
    Alignment : Split accross interleaves
    Interleave, duration : 40 ms (1.00 video frame)
    Interleave, preload duration : 500 ms

    Размер скачиваемого торрента: 5.09 GB (5460152320 Bytes)

    Каин. Исключение из правил / Cain (2012) SATRip | P скачать через торрент бесплатно
    загрузка...
    Рейтинг →
     (голосов: 1, оценка 3/5, голосовать можно 1 раз )

    Другие торренты по теме:

  • Каин / Инспектор Каин / Can / Inspecteur Can / Cain (2012) HDTVRip 720p от Brazzass


    • Комментарии (0):

      Информация

      Информация

        Посетители, находящиеся в группе Гости, не могут оставлять комментарии в данной новости.

        ↓ Меню



        ↓ Опрос

        А Вы добавили сайт в закладки?
        Да
        Не


        Top 10 за месяц (Фильмы)