.
Авторизация | Регистрация
Хочешь лучшие торренты? Добавь свой email!
Добавить
» » Кровавый кулак 4: Смертельная попытка / Bloodfist IV: Die Trying (1992) DVDRip | A скачать через торрент бесплатно




    Кровавый кулак 4: Смертельная попытка / Bloodfist IV: Die Trying (1992) DVDRip | A скачать через торрент бесплатно

    Опубликовал: Админ | Дата: 27-02-2015, 11:09 | Просмотров: 373



    Детально о кино
    Русское название: Кровавый кулак 4: Смертельная попытка
    Русское название в мировом прокате: Bloodfist IV: Die Trying
    Создали в: 1992
    Категория жанра: Боевые искусства, боевик
    Главный режиссер: Пол Зиллер / Paul Ziller
    Актеры: Дон Дракон Уилсон, Гэри Дэниелс, Джон Агро, Кэйт Сэссун, Аманда Уисс, Кэйл Брауни, Лиз Торрес, Дэн Мартин, Джин ЛеБелл, Джеймс Толкан

    Сюжет фильма:
    Дэнни Холт, человек занимающийся конфискацией автомобилей с непогашенным кредитом. Однажды очередная конфискация заканчивается тем, что оскорблённые бывшие владельцы машины, контрабандисты оружия, начинают мстить. В числе прочих акций, они крадут дочь главного героя… деваться ему некуда, он вынужден нанести ответный удар возмездия…



    Снималось в: США
    Время просмотра: 01:23:14
    Перевод текста: Авторский (одноголосый закадровый) Андрей Гаврилов

    Файл
    Кодек для видео: XviD
    Качество фильма: DVDRip
    Информация о видео: 640x480 (1.33:1), 25 fps, XviD build 46 ~986 kbps avg, 0.13 bit/pixel
    Информация о звуке: 48 kHz, AC3 Dolby Digital, 2/0 (L,R) ch, ~192 kbps

    Семпл
    MediaInfo
    Полное имя : C:UsersкDesktopфильмыBloodfist IV Die Trying.1992.DVDRip.avi
    Формат : AVI
    Формат/Информация : Audio Video Interleave
    Размер файла : 708 Мбайт
    Продолжительность : 1 ч. 23 м.
    Общий поток : 1189 Кбит/сек
    Видео
    Идентификатор : 0
    Формат : MPEG-4 Visual
    Профиль формата : Advanced Simple@L5
    Параметр BVOP формата : 2
    Параметр QPel формата : Нет
    Параметр GMC формата : Без точки перехода
    Параметр матрицы формата : Default (H.263)
    Идентификатор кодека : XVID
    Идентификатор кодека/Подсказка : XviD
    Продолжительность : 1 ч. 23 м.
    Битрейт : 987 Кбит/сек
    Ширина : 640 пикселей
    Высота : 480 пикселей
    Соотношение сторон : 4:3
    Частота кадров : 25,000 кадров/сек
    Цветовое пространство : YUV
    Субдискретизация насыщенности : 4:2:0
    Битовая глубина : 8 бит
    Тип развёртки : Прогрессивная
    Метод сжатия : С потерями
    Бит/(Пиксели*Кадры) : 0.129
    Размер потока : 588 Мбайт (83%)
    Библиотека кодирования : XviD 1.1.2 (UTC 2006-11-01)
    Аудио
    Идентификатор : 1
    Формат : AC-3
    Формат/Информация : Audio Coding 3
    Расширение режима : CM (complete main)
    Параметр Endianness формата : Big
    Идентификатор кодека : 2000
    Продолжительность : 1 ч. 23 м.
    Вид битрейта : Постоянный
    Битрейт : 192 Кбит/сек
    Каналы : 2 канала
    Расположение каналов : Front: L R
    Частота : 48,0 КГц
    Битовая глубина : 16 бит
    Метод сжатия : С потерями
    Размер потока : 114 Мбайт (16%)
    Выравнивание : Соединение по промежуткам
    Продолжительность промежутка : 40 мс. (1,00 видеокадр)
    Время предзагрузки промежутка : 512 мс.

    Скриншоты для ознакомления

    Залил: Владислав610
    Размер скачиваемого торрента: 707.61 MB (741982012 Bytes)

    Кровавый кулак 4: Смертельная попытка / Bloodfist IV: Die Trying (1992) DVDRip | A скачать через торрент бесплатно
    загрузка...
    Рейтинг →
     (голосов: 1, оценка 5/5, голосовать можно 1 раз )

    Другие торренты по теме:

  • Кровавый кулак 3: Вынужденный поединок / Bloodfist III: Forced To Fight (1991) DVDRip | А
  • Кровавый кулак 2 / Bloodfist II (1990) DVDRip | А
  • Кровавый кулак 4: Смертельная попытка / Bloodfist IV: Die Trying (1992) DVDRip
  • Кровавый кулак 5: Живая мишень / Bloodfist V: Human Target (1993) DVDRip
  • Кровавый кулак 7: Охота на человека / Bloodfist VII: Manhunt (1995) DVDRip | A


    • Комментарии (0):

      Информация

      Информация

        Посетители, находящиеся в группе Гости, не могут оставлять комментарии в данной новости.

        ↓ Меню



        ↓ Опрос

        А Вы добавили сайт в закладки?
        Да
        Не


        Top 10 за месяц (Фильмы)