.
Авторизация | Регистрация
Хочешь лучшие торренты? Добавь свой email!
Добавить
» » Настоящая любовь / True Romance (1993) DVD9 | P, A скачать через торрент бесплатно




    Настоящая любовь / True Romance (1993) DVD9 | P, A скачать через торрент бесплатно

    Опубликовал: Админ | Дата: 27-02-2015, 11:09 | Просмотров: 350



    Детально о кино
    Русское название: Настоящая любовь
    Русское название в мировом прокате: True Romance
    Создали в: 1993
    Категория жанра: триллер, криминал
    Главный режиссер: Тони Скотт
    Актеры: Кристиан Слэйтер, Патриция Аркетт, Майкл Рапапорт, Джеймс Гандольфини, Бронсон Пиншо, Деннис Хоппер, Кристофер Уокен, Сол Рубинек, Гари Олдман, Крис Пенн

    Сюжет фильма:
    Кларенс Уорли и Алабама Уитмэн познакомились и провели вместе ночь. Алабама призналась, что она делает первые шаги на трудном поприще call-girl, то есть девушки по вызову. Кларенс Уорли не был суперменом, однако, навестив сутенера Алабамы, оставил после себя два трупа — сутенера и его телохранителя…




    Снималось в: США, Франция
    Киностудия: August Entertainment, Davis-Films, Morgan Creek Productions
    Время просмотра: 121 мин.
    Перевод текста 1: профессиональный (многоголосый, закадровый)
    Перевод текста 2: авторский (А.Гаврилов)

    Файл
    Кодек для видео: MPEG2
    Качество фильма: DVD9
    Информация о видео: NTSC 16:9 (720x480) VBR 5089 Kbps, 29.970 fps
    Информация о звуке 1: Dolby AC3, 6 ch, 48.0 KHz, 448 Kbps русский
    Информация о звуке 2: Dolby AC3, 2 ch, 48.0 KHz, 192 Kbps комментарии
    Информация о звуке 3: DTS 6 ch, 48.0 KHz, 755 Kbps русский, английский
    Субтитры: русские, английские, французские, испанские

    MediaInfo
    General
    Complete name : E:Nastoyaschaya.Lubov.1993.DVD-9VIDEO_TSVTS_02_1.VOB
    Format : MPEG-PS
    File size : 1 024 MiB
    Duration : 18mn 24s
    Overall bit rate mode : Variable
    Overall bit rate : 7 776 Kbps

    Video
    ID : 224 (0xE0)
    Format : MPEG Video
    Format version : Version 2
    Format profile : Main@Main
    Format settings, BVOP : No
    Format settings, Matrix : Custom
    Format settings, GOP : M=3, N=12
    Duration : 18mn 24s
    Bit rate mode : Variable
    Bit rate : 5 089 Kbps
    Maximum bit rate : 9 802 Kbps
    Width : 720 pixels
    Height : 480 pixels
    Display aspect ratio : 16:9
    Frame rate : 29.970 fps
    Standard : NTSC
    Color space : YUV
    Chroma subsampling : 4:2:0
    Bit depth : 8 bits
    Scan type : Interlaced
    Scan order : Top Field First
    Compression mode : Lossy
    Bits/(Pixel*Frame) : 0.491
    Time code of first frame : 00:00:00:00
    Time code source : Group of pictures t_head
    Stream size : 670 MiB (65%)

    Audio #1
    ID : 189 (0xBD)-128 (0x80)
    Format : AC-3
    Format/Info : Audio Coding 3
    Mode extension : CM (complete main)
    Format settings, Endianness : Big
    Muxing mode : DVD-Video
    Duration : 18mn 24s
    Bit rate mode : Constant
    Bit rate : 448 Kbps
    Channel count : 6 channels
    Channel positions : Front: L C R, Side: L R, LFE
    Sampling rate : 48.0 KHz
    Bit depth : 16 bits
    Compression mode : Lossy
    Stream size : 59.0 MiB (6%)

    Audio #2
    ID : 189 (0xBD)-131 (0x83)
    Format : AC-3
    Format/Info : Audio Coding 3
    Mode extension : CM (complete main)
    Format settings, Endianness : Big
    Muxing mode : DVD-Video
    Duration : 18mn 24s
    Bit rate mode : Constant
    Bit rate : 192 Kbps
    Channel count : 2 channels
    Channel positions : Front: L R
    Sampling rate : 48.0 KHz
    Bit depth : 16 bits
    Compression mode : Lossy
    Stream size : 25.3 MiB (2%)

    Audio #3
    ID : 189 (0xBD)-132 (0x84)
    Format : AC-3
    Format/Info : Audio Coding 3
    Mode extension : CM (complete main)
    Format settings, Endianness : Big
    Muxing mode : DVD-Video
    Duration : 18mn 24s
    Bit rate mode : Constant
    Bit rate : 192 Kbps
    Channel count : 2 channels
    Channel positions : Front: L R
    Sampling rate : 48.0 KHz
    Bit depth : 16 bits
    Compression mode : Lossy
    Stream size : 25.3 MiB (2%)

    Audio #4
    ID : 189 (0xBD)-133 (0x85)
    Format : AC-3
    Format/Info : Audio Coding 3
    Mode extension : CM (complete main)
    Format settings, Endianness : Big
    Muxing mode : DVD-Video
    Duration : 18mn 24s
    Bit rate mode : Constant
    Bit rate : 192 Kbps
    Channel count : 2 channels
    Channel positions : Front: L R
    Sampling rate : 48.0 KHz
    Bit depth : 16 bits
    Compression mode : Lossy
    Stream size : 25.3 MiB (2%)

    Audio #5
    ID : 189 (0xBD)-137 (0x89)
    Format : DTS
    Format/Info : Digital Theater Systems
    Mode : 16
    Format settings, Endianness : Big
    Muxing mode : DVD-Video
    Duration : 18mn 24s
    Bit rate mode : Constant
    Bit rate : 755 Kbps
    Channel count : 6 channels
    Channel positions : Front: L C R, Side: L R, LFE
    Sampling rate : 48.0 KHz
    Bit depth : 24 bits
    Compression mode : Lossy
    Stream size : 99.3 MiB (10%)

    Audio #6
    ID : 189 (0xBD)-138 (0x8A)
    Format : DTS
    Format/Info : Digital Theater Systems
    Mode : 16
    Format settings, Endianness : Big
    Muxing mode : DVD-Video
    Duration : 18mn 24s
    Bit rate mode : Constant
    Bit rate : 755 Kbps
    Channel count : 6 channels
    Channel positions : Front: L C R, Side: L R, LFE
    Sampling rate : 48.0 KHz
    Bit depth : 16 bits
    Compression mode : Lossy
    Stream size : 99.3 MiB (10%)

    Text #1
    ID : 224 (0xE0)-CC3
    Format : EIA-608
    Muxing mode, more info : Muxed in Video #1
    Bit rate mode : Constant
    Stream size : 0.00 Byte (0%)

    Text #2
    ID : 189 (0xBD)-32 (0x20)
    Format : RLE
    Format/Info : Run-length encoding
    Muxing mode : DVD-Video

    Text #3
    ID : 189 (0xBD)-33 (0x21)
    Format : RLE
    Format/Info : Run-length encoding
    Muxing mode : DVD-Video

    Text #4
    ID : 189 (0xBD)-34 (0x22)
    Format : RLE
    Format/Info : Run-length encoding
    Muxing mode : DVD-Video

    Text #5
    ID : 189 (0xBD)-35 (0x23)
    Format : RLE
    Format/Info : Run-length encoding
    Muxing mode : DVD-Video

    Text #6
    ID : 189 (0xBD)-36 (0x24)
    Format : RLE
    Format/Info : Run-length encoding
    Muxing mode : DVD-Video

    Menu

    Скриншоты для ознакомления

    Залил: carisha
    Размер скачиваемого торрента: 7.44 GB (7985252352 Bytes)

    Настоящая любовь / True Romance (1993) DVD9 | P, A скачать через торрент бесплатно
    загрузка...
    Рейтинг →
     (голосов: 1, оценка 5/5, голосовать можно 1 раз )

    Другие торренты по теме:

  • Настоящая любовь / True Romance (1993) BDRip 720p от leonardo 59
  • Настоящая любовь / True Romance (1993) DVDRip от Leon-masl | P2 скачать через торрент бесплатно
  • Настоящая любовь / True Romance (1993) BDRip-AVC | P, P2, A
  • Белое золото - Настоящая любовь (2015) MP3


    • Комментарии (0):

      Информация

      Информация

        Посетители, находящиеся в группе Гости, не могут оставлять комментарии в данной новости.

        ↓ Меню



        ↓ Опрос

        А Вы добавили сайт в закладки?
        Да
        Не


        Top 10 за месяц (Фильмы)