.
Авторизация | Регистрация
Хочешь лучшие торренты? Добавь свой email!
Добавить
» » Любовь и прочие неприятности / Любовь, любопытство, прозак и сомнения / Amor, curiosidad, prozak y dudas (2001) DVD5 | A скачать через торрент бесплатно




    Любовь и прочие неприятности / Любовь, любопытство, прозак и сомнения / Amor, curiosidad, prozak y dudas (2001) DVD5 | A скачать через торрент бесплатно

    Опубликовал: Админ | Дата: 27-02-2015, 11:09 | Просмотров: 340



    Детально о кино
    Русское название: Любовь и прочие неприятности / Любовь, любопытство, таблетки и сомнения / Любовь, любопытство, прозак и сомнения
    Русское название в мировом прокате: Amor, curiosidad, prozak y dudas
    Создали в: 2001
    Категория жанра: романтическая драма
    Главный режиссер: Мигель Сантесмасес / Miguel Santesmases
    Актеры: Пилар Пунсано, Гийом Депардье, Роса Марискаль, Сильвия Марсо, Нанчо Ново, Гильермо Толедо, Эстер Ортега, Фанни Готье, Пас Гомес, Росарио Сантесмасес

    Сюжет фильма:
    Роса, Кристина и Ана - сестры. Их почти ничего не связывает, кроме фамилии. Двадцатичетырехлетняя Кристина изучает филологию, а по ночам работает в полутемном баре. Роса сделала успешную карьеру в бизнесе, но у нее практически нет личной жизни. Ана счастлива в браке, но для мужа она практически не существует. Каждая из них считает, что живет единственно правильной жизнью, пока не раздается звонок из прошлого...



    Снималось в: Испания, Франция
    Киностудия: Mate Production, Vertigo Productions
    Время просмотра: 01:38:43
    Перевод текста: Авторский (одноголосый закадровый) Антон Алексеев

    Файл
    Кодек для видео: DVD-Video
    Качество фильма: DVD5
    Информация о видео: PAL 16:9 (720x576(0.573)) Mpeg Video, 25,000 кадр/сек, 5944 Кбит/сек
    Информация о звуке: Russian (Dolby AC3, 2ch) 192 Кбит/сек, 48,0 КГц

    Семпл
    Доп. информация
    Издание artvideodvd

    DVDInfo
    Title:
    Size: 4.35 Gb ( 4 565 848 KBytes ) - DVD-5
    Enabled regions: 1, 2, 3, 4, 5, 6, 7, 8
    VTS_01 :
    Play Length: 01:38:43
    Video: PAL 16:9 (720x576) VBR, Auto Letterboxed
    Audio:
    Not specified (Dolby AC3, 2 ch)
    Menu Video:
    PAL 4:3 (720x576) VBR
    Menu Subtitles:
    Not specified
    Menu Language Unit :
    Root Menu

    MediaInfo
    General
    Complete name : D:oddsЛюбовь, любопытство, таблетки и сомненияVIDEO_TSVTS_01_1.VOB
    Format : MPEG-PS
    File size : 1 024 MiB
    Duration : 22mn 52s
    Overall bit rate : 6 260 Kbps
    Video
    ID : 224 (0xE0)
    Format : MPEG Video
    Format version : Version 2
    Format profile : Main@Main
    Format settings, BVOP : Yes
    Format settings, Matrix : Default
    Format settings, GOP : M=3, N=15
    Duration : 22mn 52s
    Bit rate mode : Variable
    Bit rate : 5 944 Kbps
    Nominal bit rate : 9 800 Kbps
    Width : 720 pixels
    Height : 576 pixels
    Display aspect ratio : 16:9
    Frame rate : 25.000 fps
    Standard : PAL
    Color space : YUV
    Chroma subsampling : 4:2:0
    Bit depth : 8 bits
    Scan type : Progressive
    Scan order : Top Field First
    Bits/(Pixel*Frame) : 0.573
    Stream size : 972 MiB (95%)
    Audio
    ID : 128 (0x80)
    Format : AC-3
    Format/Info : Audio Coding 3
    Mode extension : CM (complete main)
    Duration : 22mn 51s
    Bit rate mode : Constant
    Bit rate : 192 Kbps
    Channel(s) : 2 channels
    Channel positions : Front: L R
    Sampling rate : 48.0 KHz
    Video delay : -40ms
    Stream size : 31.4 MiB (3%)
    Menu

    Скриншоты для ознакомления меню

    Скриншоты для ознакомления

    Залил: Владислав610
    Размер скачиваемого торрента: 4.35 GB (4675428352 Bytes)

    Любовь и прочие неприятности / Любовь, любопытство, прозак и сомнения / Amor, curiosidad, prozak y dudas (2001) DVD5 | A скачать через торрент бесплатно
    загрузка...
    Рейтинг →
     (голосов: 1, оценка 5/5, голосовать можно 1 раз )

    Другие торренты по теме:

  • Девушки без имен / Любовь и Ненависть, Лулу и Аяно / Namae no nai onna-tachi / Love Loathing Lulu Ayano (2010) DVDRip-AVC | Sub
  • Сборник - Лирика, Шансон и Любовь и Зеленые глаза скачать через торрент бесплатно
  • Тайны мира с Анной Чапман. Разоблачение. Любовь и война (2013) SATRip
  • Любовь и кухня / Loves Kitchen (2011) HDRip | Лицензия
  • Любовь и честь / Love and Honor / Bushi no ichibun (2006) BDRip от Rulya74
  • Белый Камень - Любовь и ревность (1991) MP3
  • Виталий Черницкий - Любовь и Музыка (1971-2011) MP3
  • Любовь и прочие обстоятельства / Love and Other Impossible Pursuits (2009) BDRip-AVC от MediaClub | D


    • Комментарии (0):

      Информация

      Информация

        Посетители, находящиеся в группе Гости, не могут оставлять комментарии в данной новости.

        ↓ Меню



        ↓ Опрос

        А Вы добавили сайт в закладки?
        Да
        Не


        Top 10 за месяц (Фильмы)