.
Авторизация | Регистрация
Хочешь лучшие торренты? Добавь свой email!
Добавить
» » Убийственная мультипликация / Killer Toon (2013) HDRip от BitTracker скачать торрент бесплатно




    Убийственная мультипликация / Killer Toon (2013) HDRip от BitTracker скачать торрент бесплатно

    Опубликовал: Админ | Дата: 27-02-2015, 11:09 | Просмотров: 389



    Детально о кино
    Русское название: Убийственная мультипликация
    Русское название в мировом прокате: Killer Toon
    Создали в: 2013
    Категория жанра: ужасы, триллер
    Главный режиссер: Ён-гён Ким
    Актеры: Ким Хён У, Хэ-хё Квон, Ли Си Ён, Ох Кван Рок, Ом Ки Чжун

    Сюжет фильма:
    Популярный художник комикса ужасов Чжи Юн считает, что жизнь подражает ее работам, когда ее издатель оказывается мертвым, точно так же, как девушка изобразила жертву в своем последнем комиксе. Чжи Юн попадает под подозрение, но у нее железное алиби. Тогда все решают, что смерть издателя была самоубийством или убийством подражателя. Но, когда происходит серия убийств, напоминающих комиксы Чжи Юн, детектив Ли Ки Чхоль начинает расследование и оказывается близок к страшной разгадке…




    Снималось в: Южная Корея
    Киностудия: CJ EM Pictures, Filma Pictures
    Время просмотра: 01:44:06
    Перевод текста: Любительское (многоголосое) DeadSno den904

    Файл
    Кодек для видео: XviD
    Качество фильма: HDRip (Исх. BDRip 1080p)
    Информация о видео: 720x384 (1.88:1), 23.976 fps, XviD build 50 ~1801 kbps avg, 0.27 bit/pixel
    Информация о звуке: 48 kHz, AC3 Dolby Digital, 2/0 (L,R) ch, ~192.00 kbps avg
    Субтитры: нет

    Семпл

    MediaInfo

    Общее
    Полное имя : S:ФильмыУбийственная мультипликация. 2013. HDRip. 1.45 (AleksSin).avi
    Формат : AVI
    Формат/Информация : Audio Video Interleave
    Размер файла : 1,46 Гбайт
    Продолжительность : 1 ч. 44 м.
    Общий поток : 2003 Кбит/сек
    Программа кодирования : VirtualDubMod 1.5.10.3 | www.virtualdub-fr.org || (build 2550/release)
    Библиотека кодирования : VirtualDubMod build 2550/release

    Видео
    Идентификатор : 0
    Формат : MPEG-4 Visual
    Профиль формата : Advanced Simple@L5
    Параметр BVOP формата : 2
    Параметр QPel формата : Нет
    Параметр GMC формата : Без точки перехода
    Параметр матрицы формата : Default (H.263)
    Идентификатор кодека : XVID
    Идентификатор кодека/Подсказка : XviD
    Продолжительность : 1 ч. 44 м.
    Битрейт : 1801 Кбит/сек
    Ширина : 720 пикс.
    Высота : 384 пикс.
    Соотношение сторон : 1,875
    Частота кадров : 23,976 кадр/сек
    Цветовое пространство : YUV
    Подвыборка цветности : 4:2:0
    Битовая глубина : 8 бит
    Тип развёртки : Прогрессивная
    Метод сжатия : С потерями
    Бит/(Пиксели*Кадры) : 0.272
    Размер потока : 1,31 Гбайт (90%)
    Библиотека кодирования : XviD 1.2.1 (UTC 2008-12-04)

    Аудио
    Идентификатор : 1
    Формат : AC-3
    Формат/Информация : Audio Coding 3
    Расширение режима : CM (complete main)
    Идентификатор кодека : 2000
    Продолжительность : 1 ч. 44 м.
    Вид битрейта : Постоянный
    Битрейт : 192 Кбит/сек
    Каналы : 2 канала
    Расположение каналов : Front: L R
    Частота : 48,0 КГц
    Битовая глубина : 16 бит
    Метод сжатия : С потерями
    Размер потока : 143 Мбайт (10%)
    Выравнивание : Разделение по промежуткам
    Продолжительность промежутка : 42 мс. (1,00 видеокадр)
    Время предзагрузки промежутка : 500 ms

    Скриншоты для ознакомления


    Релиз подготовил:
    Залил: AleksSin
    Размер скачиваемого торрента: 1.46 GB (1563957248 Bytes)

    Убийственная мультипликация / Killer Toon (2013) HDRip от BitTracker торрент скачать бесплатно
    загрузка...
    Рейтинг →
     (голосов: 1, оценка 5/5, голосовать можно 1 раз )

    Другие торренты по теме:

  • Убийственная мультипликация / Killer Toon (2013) DVDRip | DeadSno den904 | L
  • Убийственная мультипликация / Killer Toon (2013) BDRip 1080p от CINEMANIA | L скачать через торрент бесплатно
  • Убийственная мультипликация / Killer Toon (2013) BDRip 720p от CINEMANIA | L скачать через торрент бесплатно
  • Убийственная мультипликация / Killer Toon (2013) HDRip


    • Комментарии (0):

      Информация

      Информация

        Посетители, находящиеся в группе Гости, не могут оставлять комментарии в данной новости.

        ↓ Меню



        ↓ Опрос

        А Вы добавили сайт в закладки?
        Да
        Не


        Top 10 за месяц (Фильмы)