.
Авторизация | Регистрация
Хочешь лучшие торренты? Добавь свой email!
Добавить
» » Иногда они возвращаются снова / Sometimes They Come Back... Again (1996) WEB-DLRip от Leon-masl скачать через торрент бесплатно




    Иногда они возвращаются снова / Sometimes They Come Back... Again (1996) WEB-DLRip от Leon-masl скачать через торрент бесплатно

    Опубликовал: Админ | Дата: 27-02-2015, 11:09 | Просмотров: 393



    Детально о кино
    Русское название: Иногда они возвращаются снова
    Русское название в мировом прокате: Sometimes They Come Back... Again
    Создали в: 1996
    Категория жанра: ужасы, мистика, триллер
    Главный режиссер: Адам Гроссман / Adam Grossman
    Актеры: Майкл Гросс, Алексис Аркетт, Хилари Суэнк, Боджесси Кристофер, Глен Боуден, Дженнифер Элиз Кокс, Дженнифер Аспен, Уильям Морган Шеппард, Майкл Малота, Гэбриел Делл мл.

    Сюжет фильма:
    30 лет назад психиатр Йон Портер потерял сестру. Она стала жертвой тайного ритуала демонов во плоти, а он стал свидетелем этой жуткой казни. Спустя много лет при загадочных обстоятельствах погибает его мать.Дьяволы вернулись? Да, и теперь опасность подстерегает всех жителей маленького городка. В одном из новых приятелей восемнадцатилетней дочери Мишель он узнает того, кто лишил жизни сестру. Девушка может стать следующей жертвой нечистой силы…

    По рассказу Стивена Кинга


    Снималось в: США
    Время просмотра: 01:38:26
    Перевод текста: Авторский (одноголосый закадровый) Андрей Гаврилов

    Файл
    Кодек для видео: XviD
    Качество фильма: WEB-DLRip
    Информация о видео: 720x400, 23.976 fps, 1917 kbps
    Информация о звуке: 48 kHz, AC3 Dolby Digital, 2/0 (L,R) ch, ~192.00 kbps
    MI
    Общее
    Полное имя : Sometimes.They.Come.Back.Again.1996.WEB-DLRip.avi
    Формат : AVI
    Формат/Информация : Audio Video Interleave
    Размер файла : 1,46 Гбайт
    Продолжительность : 1 ч. 38 м.
    Общий поток : 2118 Кбит/сек
    Программа кодирования : VirtualDubMod 1.5.10.3 | www.virtualdub-fr.org || (build 2550/release)
    Библиотека кодирования : VirtualDubMod build 2550/release

    Видео
    Идентификатор : 0
    Формат : MPEG-4 Visual
    Профиль формата : Advanced Simple@L5
    Параметр BVOP формата : 1
    Параметр QPel формата : Нет
    Параметр GMC формата : Без точки перехода
    Параметр матрицы формата : Выборочная
    Идентификатор кодека : XVID
    Идентификатор кодека/Подсказка : XviD
    Продолжительность : 1 ч. 38 м.
    Битрейт : 1917 Кбит/сек
    Ширина : 720 пикс.
    Высота : 400 пикс.
    Соотношение сторон : 16:9
    Частота кадров : 23,976 кадр/сек
    Цветовое пространство : YUV
    Подвыборка цветности : 4:2:0
    Битовая глубина : 8 бит
    Тип развёртки : Прогрессивная
    Метод сжатия : С потерями
    Бит/(Пиксели*Кадры) : 0.278
    Размер потока : 1,32 Гбайт (90%)
    Библиотека кодирования : XviD 73

    Аудио
    Идентификатор : 1
    Формат : AC-3
    Формат/Информация : Audio Coding 3
    Расширение режима : CM (complete main)
    Идентификатор кодека : 2000
    Продолжительность : 1 ч. 38 м.
    Вид битрейта : Постоянный
    Битрейт : 192 Кбит/сек
    Канал(ы) : 2 канала(ов)
    Расположение каналов : Front: L R
    Частота : 48,0 КГц
    Битовая глубина : 16 бит
    Метод сжатия : С потерями
    Размер потока : 135 Мбайт (9%)
    Выравнивание : Разделение по промежуткам
    Продолжительность промежутка : 42 мс. (1,00 видеокадр)
    Время предзагрузки промежутка : 500 ms
    Скриншоты для ознакомления


    Релиз подготовил: Leon-masl

    Залил: leon-masl
    Размер скачиваемого торрента: 1.46 GB (1563942912 Bytes)

    Иногда они возвращаются снова / Sometimes They Come Back... Again (1996) WEB-DLRip от Leon-masl скачать через торрент бесплатно
    загрузка...
    Рейтинг →
     (голосов: 1, оценка 4/5, голосовать можно 1 раз )

    Другие торренты по теме:

  • Иногда они возвращаются / Sometimes They Come Back (1991) HDTVRip | P2
  • Убийственный холод / Иногда они возвращаются снова и снова / Sometimes They Come Back... for More (1998) DVDRip | P
  • Иногда они возвращаются снова / Sometimes They Come Back... Again (1996) DVDRip | А
  • Иногда они возвращаются / Sometimes They Come Back (1991) HDRip от Leon-masl скачать через торрент бесплатно
  • Иногда они возвращаются / Sometimes They Come Back (1991) BDRip 720p | P скачать через торрент бесплатно
  • Иногда Они Возвращаются (3) / Поп / 2013 / MP3


    • Комментарии (0):

      Информация

      Информация

        Посетители, находящиеся в группе Гости, не могут оставлять комментарии в данной новости.

        ↓ Меню



        ↓ Опрос

        А Вы добавили сайт в закладки?
        Да
        Не


        Top 10 за месяц (Фильмы)