.
Авторизация | Регистрация
Хочешь лучшие торренты? Добавь свой email!
Добавить
» » Визит оркестра / Bikur Ha-Tizmoret / The Bands visit (2007) DVDRip от MediaClub | P скачать через торрент бесплатно




    Визит оркестра / Bikur Ha-Tizmoret / The Bands visit (2007) DVDRip от MediaClub | P скачать через торрент бесплатно

    Опубликовал: Админ | Дата: 27-02-2015, 11:09 | Просмотров: 350



    Детально о кино
    Русское название: Визит оркестра
    Русское название в мировом прокате: Bikur Ha-Tizmoret / The Band;s visit
    Создали в: 2007
    Категория жанра: Драма, комедия, музыка
    Главный режиссер: Эран Колирин
    Актеры: Шломи Авраам, Салех Бакри, Ронит Элкабец, Сассон Габай, Ури Гавриэль, Имад Джабарин, Ахува Керен, Франсуа Кхел, Хишам Кхоури, Тарак Копти, Ринат Мататов, Руби Московитц, Кхалифа Натур, Хилла Сарьон, Эяд Шеети

    Сюжет фильма:
    Александрийский церемониальный полицейский оркестр в составе восьми человек прилетает в Израиль, где должен играть на открытии нового Арабского культурного центра. Музыкантов никто не встречает, и они пытаются добраться до нужного города самостоятельно. И оказываются буквально посреди пустыни, в маленьком и не очень дружелюбном на вид городке…



    Снималось в: Израиль, США, Франция
    Киностудия: Bleiberg Entertainment, Israel Film Fund, July August Productions, Keshet Broadcasting, Sophie Dulac Productions, Yes
    Время просмотра: 01:23:27
    Перевод текста: Профессиональный многоголосый

    Файл
    Кодек для видео: XviD
    Качество фильма: DVDRip
    Информация о видео: 1881 Кбит/с, 720x400, 25.000 кадр/с
    Информация о звуке:
    Информация о звуке #1: Русский (АС3, 6 ch, 448 Кбит/с)
    Информация о звуке #2: Английский (AC3, 6 ch, 448 Кбит/с)

    Семпл

    Скриншоты для ознакомления

    MI
    Общее
    Полное имя : Vizit.orkestra.2007.DVDRip.MediaClub.avi
    Формат : AVI
    Формат/Информация : Audio Video Interleave
    Размер файла : 1,63 Гбайт
    Продолжительность : 1 ч. 23 м.
    Общий поток : 2791 Кбит/сек
    Программа кодирования : VirtualDubMod 1.5.10.2 (build 2540/release)
    Библиотека кодирования : VirtualDubMod build 2540/release

    Видео
    Идентификатор : 0
    Формат : MPEG-4 Visual
    Профиль формата : Advanced Simple@L5
    Параметр BVOP формата : 2
    Параметр QPel формата : Нет
    Параметр GMC формата : Без точки перехода
    Параметр матрицы формата : Default (MPEG)
    Идентификатор кодека : XVID
    Идентификатор кодека/Подсказка : XviD
    Продолжительность : 1 ч. 23 м.
    Битрейт : 1881 Кбит/сек
    Ширина : 720 пикселей
    Высота : 400 пикселей
    Соотношение сторон : 16:9
    Частота кадров : 25,000 кадров/сек
    Цветовое пространство : YUV
    Субдискретизация насыщенности : 4:2:0
    Битовая глубина : 8 бит
    Тип развёртки : Прогрессивная
    Метод сжатия : С потерями
    Бит/(Пиксели*Кадры) : 0.261
    Размер потока : 1,10 Гбайт (67%)
    Библиотека кодирования : XviD 65

    Аудио #1
    Идентификатор : 1
    Формат : AC-3
    Формат/Информация : Audio Coding 3
    Расширение режима : CM (complete main)
    Параметр Endianness формата : Big
    Идентификатор кодека : 2000
    Продолжительность : 1 ч. 23 м.
    Вид битрейта : Постоянный
    Битрейт : 448 Кбит/сек
    Каналы : 6 каналов
    Расположение каналов : Front: L C R, Side: L R, LFE
    Частота : 48,0 КГц
    Битовая глубина : 16 бит
    Метод сжатия : С потерями
    Размер потока : 267 Мбайт (16%)
    Выравнивание : Разделение по промежуткам
    Продолжительность промежутка : 40 мс. (1,00 видеокадр)
    Время предзагрузки промежутка : 500 мс.

    Аудио #2
    Идентификатор : 2
    Формат : AC-3
    Формат/Информация : Audio Coding 3
    Расширение режима : CM (complete main)
    Параметр Endianness формата : Big
    Идентификатор кодека : 2000
    Продолжительность : 1 ч. 23 м.
    Вид битрейта : Постоянный
    Битрейт : 448 Кбит/сек
    Каналы : 6 каналов
    Расположение каналов : Front: L C R, Side: L R, LFE
    Частота : 48,0 КГц
    Битовая глубина : 16 бит
    Метод сжатия : С потерями
    Размер потока : 267 Мбайт (16%)
    Выравнивание : Разделение по промежуткам
    Продолжительность промежутка : 40 мс. (1,00 видеокадр)
    Время предзагрузки промежутка : 500 мс.

    Награды

    Европейская киноакадемия, 2007 год
    Победитель (2):

    Лучшая мужская роль (Сэссон Габаи)
    Европейское открытие года (Эран Колирин)

    Номинации (1):

    Лучшая работа сценариста (Эран Колирин)


    Релиз подготовил:
    Залил: poja
    Размер скачиваемого торрента: 1.63 GB (1745244160 Bytes)

    Визит оркестра / Bikur Ha-Tizmoret / The Bands visit (2007) DVDRip от MediaClub | P скачать через торрент бесплатно
    загрузка...
    Рейтинг →
     (голосов: 1, оценка 4/5, голосовать можно 1 раз )

    Другие торренты по теме:

  • Частный визит в немецкую клинику / 1988 / РУ / SATRip
  • Тайные знаки. Странные явления. Пришельцы. Необъявленный визит (2011) SATRip от Generalfilm
  • Вайнер Аркадий, Вайнер Георгий - Визит к Минотавру (2013) MP3
  • Визит инспектора скачать через торрент бесплатно
  • Визит после полуночи скачать через торрент бесплатно
  • Визит к Минотавру (1987) SATRip от New-Team
  • Визит / The Visit (2015) WEBRip 1080p | L1
  • Визит (2015) HDRip


    • Комментарии (0):

      Информация

      Информация

        Посетители, находящиеся в группе Гости, не могут оставлять комментарии в данной новости.

        ↓ Меню



        ↓ Опрос

        А Вы добавили сайт в закладки?
        Да
        Не


        Top 10 за месяц (Фильмы)