.
Авторизация | Регистрация
Хочешь лучшие торренты? Добавь свой email!
Добавить
» » Жестокая игра / The Crying Game (1992) BDRip (AVC) от MediaClub | P2, A скачать торрент бесплатно




    Жестокая игра / The Crying Game (1992) BDRip (AVC) от MediaClub | P2, A скачать торрент бесплатно

    Опубликовал: Админ | Дата: 27-02-2015, 11:09 | Просмотров: 416



    Детально о кино
    Русское название: Жестокая игра
    Русское название в мировом прокате: The Crying Game
    Создали в: 1992
    Категория жанра: Триллер, драма, мелодрама, криминал
    Главный режиссер: Нил Джордан
    Актеры: Форест Уитакер, Миранда Ричардсон, Стивен Ри, Эдриан Данбар, Бреффни МакКенна, Джо Савино, Бёрди Суини, Джей Дэвидсон, Андре Бернард, Джим Бродбент

    Сюжет фильма:
    Британский солдат Джоди, попавший в плен к боевикам Ирландской республиканской армии, подружился с одним из своих тюремщиков Фергюсом. Но их дружба не могла кончиться ничем, кроме трагедии. Получив приказ расстрелять пленника, Фергюс был вынужден подчиниться. Больше он не хочет никого убивать и, покинув бывших товарищей по оружию, уезжает в Лондон. Фергюс должен выполнить последнюю волю Джоди и разыскать его любимую девушку Дил, которую видел на фотографии. Днем эта неотразимо притягательная девушка работает парикмахером, а по вечерам поет в баре. С первой же встречи Фергюс и Дил полюбили друг друга. Она ничего не знает о прошлом Фергюса. Но и Фергюс не знает о Дил кое-что очень важное…



    Снималось в: Япония, Великобритания, British Screen Productions, Channel Four Films, Eurotrustees, Nippon Film Development and Finance Inc., Palace Pictures
    Время просмотра: 01:51:58
    Перевод текста: Профессиональный двухголосый, авторский

    Файл
    Кодек для видео: x264
    Качество фильма: BDRip (AVC)
    Информация о видео: MPEG-4 AVC, 2600 Кбит/с, 1024x438, 24.000 кадр/с
    Информация о звуке #1: Русский (АС3, 2 ch, 192 Кбит/с) / Профессиональный двухголосый (InterVideo)
    Информация о звуке #2: Русский (АС3, 2 ch, 192 Кбит/с) / Профессиональный двухголосый (Екатеринбург Арт)
    Информация о звуке #3: Русский (АС3, 2 ch, 192 Кбит/с) / Авторский одноголосый (Алексей Михалёв)
    Информация о звуке #4: Английский (AC3, 6 ch, 448 Кбит/с)
    Субтитры: Английские

    Семпл

    MI
    Complete name : D:РаздачиThe.Crying.Game.1992.x264.BDRip.(AVC).-MediaClub.mkv
    Format : Matroska
    Format version : Version 4 / Version 2
    File size : 2.83 GiB
    Duration : 1h 51mn
    Overall bit rate : 3 625 Kbps
    Movie name : -=MediaClub-Odessit=-
    Encoded date : UTC 2013-10-25 07:09:58
    Writing application : mkvmerge v6.2.0 (;Promised Land;) built on Apr 28 2013 12:22:01
    Writing library : libebml v1.3.0 libmatroska v1.4.0

    Video
    ID : 1
    Format : AVC
    Format/Info : Advanced Video Codec
    Format profile : High@L4.1
    Format settings, CABAC : Yes
    Format settings, ReFrames : 9 frames
    Codec ID : V_MPEG4/ISO/AVC
    Duration : 1h 51mn
    Bit rate : 2 600 Kbps
    Width : 1 024 pixels
    Height : 438 pixels
    Display aspect ratio : 2.35:1
    Frame rate : 24.000 fps
    Color space : YUV
    Chroma subsampling : 4:2:0
    Bit depth : 8 bits
    Scan type : Progressive
    Bits/(Pixel*Frame) : 0.242
    Stream size : 1.98 GiB (70%)
    Writing library : x264 core 133 r2334 a3ac64b
    Encoding settings : cabac=1 / ref=9 / deblock=1:-3:-3 / analyse=0x3:0x133 / me=umh / subme=11 / psy=1 / psy_rd=1.00:0.20 / mixed_ref=1 / me_range=48 / chroma_me=1 / trellis=2 / 8x8dct=1 / cqm=0 / deadzone=21,11 / fast_pskip=0 / chroma_qp_offset=-3 / threads=6 / lookahead_threads=1 / sliced_threads=0 / nr=0 / decimate=0 / interlaced=0 / bluray_compat=0 / constrained_intra=0 / bframes=9 / b_pyramid=2 / b_adapt=2 / b_bias=0 / direct=3 / weightb=1 / open_gop=0 / weightp=2 / keyint=240 / keyint_min=24 / scenecut=40 / intra_refresh=0 / rc=2pass / mbtree=0 / bitrate=2600 / ratetol=1.0 / qcomp=0.60 / qpmin=0 / qpmax=69 / qpstep=4 / cplxblur=20.0 / qblur=0.5 / ip_ratio=1.40 / pb_ratio=1.30 / aq=1:1.00
    Language : English

    Audio #1
    ID : 2
    Format : AC-3
    Format/Info : Audio Coding 3
    Mode extension : CM (complete main)
    Codec ID : A_AC3
    Duration : 1h 51mn
    Bit rate mode : Constant
    Bit rate : 192 Kbps
    Channel(s) : 2 channels
    Channel positions : Front: L R
    Sampling rate : 48.0 KHz
    Bit depth : 16 bits
    Compression mode : Lossy
    Stream size : 154 MiB (5%)
    Title : DVO (InterVideo)
    Language : Russian

    Audio #2
    ID : 3
    Format : AC-3
    Format/Info : Audio Coding 3
    Mode extension : CM (complete main)
    Codec ID : A_AC3
    Duration : 1h 51mn
    Bit rate mode : Constant
    Bit rate : 192 Kbps
    Channel(s) : 2 channels
    Channel positions : Front: L R
    Sampling rate : 48.0 KHz
    Bit depth : 16 bits
    Compression mode : Lossy
    Stream size : 154 MiB (5%)
    Title : DVO (Екатеринбург Арт)
    Language : Russian

    Audio #3
    ID : 4
    Format : AC-3
    Format/Info : Audio Coding 3
    Mode extension : CM (complete main)
    Codec ID : A_AC3
    Duration : 1h 51mn
    Bit rate mode : Constant
    Bit rate : 192 Kbps
    Channel(s) : 2 channels
    Channel positions : Front: L R
    Sampling rate : 48.0 KHz
    Bit depth : 16 bits
    Compression mode : Lossy
    Stream size : 154 MiB (5%)
    Title : AVO (Алексей Михалёв)
    Language : Russian

    Audio #4
    ID : 5
    Format : AC-3
    Format/Info : Audio Coding 3
    Mode extension : CM (complete main)
    Codec ID : A_AC3
    Duration : 1h 51mn
    Bit rate mode : Constant
    Bit rate : 448 Kbps
    Channel(s) : 6 channels
    Channel positions : Front: L C R, Side: L R, LFE
    Sampling rate : 48.0 KHz
    Bit depth : 16 bits
    Compression mode : Lossy
    Stream size : 359 MiB (12%)
    Language : English

    Text
    ID : 6
    Format : UTF-8
    Codec ID : S_TEXT/UTF8
    Codec ID/Info : UTF-8 Plain Text
    Language : English

    Menu
    00:00:00.000 : :Chapter 01
    00:09:40.916 : :Chapter 02
    00:18:57.666 : :Chapter 03
    00:27:28.791 : :Chapter 04
    00:38:30.000 : :Chapter 05
    00:46:19.000 : :Chapter 06
    00:55:49.500 : :Chapter 07
    01:05:47.458 : :Chapter 08
    01:13:08.791 : :Chapter 09
    01:24:17.250 : :Chapter 10
    01:30:48.625 : :Chapter 11
    01:45:46.000 : :Chapter 12
    01:51:57.958 : :Chapter 13


    О релизе
    • За исходный диск спасибо (BitHQ)

    x264 log
    ---Information 25.10.2013 4:36:35 x264 info: frame I:1064 Avg QP:16.68 size: 69637
    ---Information 25.10.2013 4:36:35 x264 info: frame P:30208 Avg QP:19.21 size: 26932
    ---Information 25.10.2013 4:36:35 x264 info: frame B:129958 Avg QP:20.53 size: 9958

    Сохранены главы как на Blu-Ray


    Скриншоты для ознакомления


    Релиз подготовил:
    Размер скачиваемого торрента: 2.83 GB (3043815939 Bytes)

    Жестокая игра / The Crying Game (1992) BDRip (AVC) от MediaClub | P2, A торрент скачать бесплатно
    загрузка...
    Рейтинг →
     (голосов: 1, оценка 5/5, голосовать можно 1 раз )

    Другие торренты по теме:

  • Жестокая игра / The Crying Game (1992) BDRip от MediaClub | P2, A
  • Жестокая игра / Un jeu brutal (1983) DVDRip скачать через торрент бесплатно
  • Жестокая игра / The Crying Game (1992) BDRip 1080p | P2, A


    • Комментарии (0):

      Информация

      Информация

        Посетители, находящиеся в группе Гости, не могут оставлять комментарии в данной новости.

        ↓ Меню



        ↓ Опрос

        А Вы добавили сайт в закладки?
        Да
        Не


        Top 10 за месяц (Фильмы)