.
Авторизация | Регистрация
Хочешь лучшие торренты? Добавь свой email!
Добавить
» » Тайное дитя / Tyskungen (2013) HDRip | L2 скачать торрент бесплатно




    Тайное дитя / Tyskungen (2013) HDRip | L2 скачать торрент бесплатно

    Опубликовал: Админ | Дата: 27-02-2015, 11:09 | Просмотров: 276



    Детально о кино
    Русское название: Тайное дитя
    Русское название в мировом прокате: Tyskungen
    Создали в: 2013
    Категория жанра: Триллер, Криминал, Детектив
    Главный режиссер: Пер Ханефьорд
    Актеры: Клаудия Галли, Рихард Ульфсетер, Эва Фритьофсон, Памела Кортес Бруна, Леннарт Йенкель, Амалия Хольм Бьельке, Фэнни Клефельт, Эдвин Эндре, Аксель Мюрберг, Ким Сольфельдт

    Сюжет фильма:
    Экранизация книги Камиллы Лекберг. Живописный рыбацкий городок Фьелльбакка на побережье Атлантики выглядит как ожившая туристическая открытка. Именно сюда возвращается автор детективов Эрика, мечтая предаться счастливой семейной жизни и творчеству. Но тихая провинциальная жизнь таит немало секретов. И однажды вековой покой Фьелльбакки взрывается новостью о жестоком убийстве…




    Снималось в: Швеция
    Киностудия: Tre V?nner Produktion AB
    Время просмотра: 01:45:03
    Перевод текста: Любительский (двуголосый закадровый)
    Озвучка / Автор перевода: Максим Максимов, С Причудами

    Файл
    Кодек для видео: AVI
    Качество фильма: HDRip | L2
    Информация о видео: 720x304, ~1528 Kbit/s, 24 fps
    Информация о звуке: AC3 5.1~448 Kbit/s
    Субтитры: Отсутствуют

    Семпл

    MI
    Общее
    Полное имя : D:ТоррентыТайное дитя.2013.HDRip.avi
    Формат : AVI
    Формат/Информация : Audio Video Interleave
    Размер файла : 1,46 Гбайт
    Продолжительность : 1 ч. 45 м.
    Общий поток : 1986 Кбит/сек
    Программа кодирования : VirtualDubMod 1.5.10.2 (build 2542/release)
    Библиотека кодирования : VirtualDubMod build 2542/release

    Видео
    Идентификатор : 0
    Формат : MPEG-4 Visual
    Профиль формата : Advanced Simple@L5
    Параметр BVOP формата : 1
    Параметр QPel формата : Нет
    Параметр GMC формата : Без точки перехода
    Параметр матрицы формата : Default (H.263)
    Идентификатор кодека : XVID
    Идентификатор кодека/Подсказка : XviD
    Продолжительность : 1 ч. 45 м.
    Битрейт : 1528 Кбит/сек
    Ширина : 720 пикс.
    Высота : 304 пикс.
    Соотношение сторон : 2,35:1
    Частота кадров : 24,000 кадр/сек
    Цветовое пространство : YUV
    Подвыборка цветности : 4:2:0
    Битовая глубина : 8 бит
    Тип развёртки : Прогрессивная
    Метод сжатия : С потерями
    Бит/(Пиксели*Кадры) : 0.291
    Размер потока : 1,12 Гбайт (77%)
    Библиотека кодирования : XviD 1.2.1 (UTC 2008-12-04)

    Аудио
    Идентификатор : 1
    Формат : AC-3
    Формат/Информация : Audio Coding 3
    Расширение режима : CM (complete main)
    Идентификатор кодека : 2000
    Продолжительность : 1 ч. 45 м.
    Вид битрейта : Постоянный
    Битрейт : 448 Кбит/сек
    Каналы : 6 каналов
    Расположение каналов : Front: L C R, Side: L R, LFE
    Частота : 48,0 КГц
    Битовая глубина : 16 бит
    Метод сжатия : С потерями
    Размер потока : 337 Мбайт (23%)
    Выравнивание : Разделение по промежуткам
    Продолжительность промежутка : 42 мс. (1,00 видеокадр)
    Время предзагрузки промежутка : 500 ms


    Скриншоты для ознакомления

    Залил: aleksndr
    Размер скачиваемого торрента: 1.46 GB (1564678144 Bytes)

    Тайное дитя / Tyskungen (2013) HDRip | L2 торрент скачать бесплатно
    загрузка...
    Рейтинг →
     (голосов: 1, оценка 3/5, голосовать можно 1 раз )

    Другие торренты по теме:

  • Тайное дитя / Tyskungen / The Hidden Child (2013) HDRip от BitTracker | L1 скачать через торрент бесплатно
  • Тайное дитя / Tyskungen / The Hidden Child (2013) HDRip от BitTracker скачать через торрент бесплатно
  • Тайное дитя / Tyskungen / The Hidden Child (2013) BDRip-AVC от F-Torrents скачать через торрент бесплатно
  • Тайное дитя / Tyskungen / The Hidden Child (2013) BDRip 720p скачать через торрент бесплатно
  • Тайное дитя / The Hidden Child / Tyskungen (2013) BDRip 720p от CINEMANIA | L2, L1
  • Тайное дитя / Убийство у моря / Tyskungen (2013) BDRip 720p | P скачать через торрент бесплатно
  • Убийство у моря / Тайное дитя / Tyskungen


    • Комментарии (0):

      Информация

      Информация

        Посетители, находящиеся в группе Гости, не могут оставлять комментарии в данной новости.

        ↓ Меню



        ↓ Опрос

        А Вы добавили сайт в закладки?
        Да
        Не


        Top 10 за месяц (Фильмы)