.
Авторизация | Регистрация
Хочешь лучшие торренты? Добавь свой email!
Добавить
» » Флюк / Fluke (1995) HDTVRip от Youtracker скачать торрент бесплатно




    Флюк / Fluke (1995) HDTVRip от Youtracker скачать торрент бесплатно

    Опубликовал: Админ | Дата: 27-02-2015, 11:09 | Просмотров: 346


    Снималось в: США
    Создали в: Metro-Goldwyn-Mayer (MGM), Rocket Pictures
    Категория жанра: фэнтези, драма, семейный
    Создали в: 1995
    Время просмотра: 01:31:33

    Перевод текста: Профессиональный (дублированный)
    Оригинальная аудиодорожка: нет
    Субтитры подготовлены: нет

    Главный режиссер: Карло Карлей / Carlo Carlei

    Актеры:
    Рон Перлман, Мэтью Модайн, Нэнси Трэвис, Эрик Столц, Макс Померанц, Джон Полито, Билл Коббс, Коллин Уилкокс Пэкстон, Федерико Пачифичи, Сэмюэл Л. Джексон...

    Роли дублировали:
    Борис Быстров, Василий Куприянов, Любовь Германова, Никита Прозоровский, Ирина Гришина...

    Сюжет:
    Душа погибшего в автомобильной катастрофе молодого человека переселяется в очаровательного новорожденного щенка. Постепенно вырастая, он находит свою семью и вспоминает прошлую жизнь. Как выясняется, он не всегда был прав, когда был человеком...




    Исходник: HDTV 1080i
    Тип релиза: HDTVRip
    Контейнер: AVI

    Информация о видео: 704x384 (1,833:1), 25 fps, XviD ~ 1000 kbps avg, 0.148 bit/pixel
    Информация о звуке: 48 kHz, MP3 2.0, 128 kbps

    Раздача от:
    MediaInfo

    Общее
    Полное имя : Fluk.1995.HDTVRip-745_Youtracker_by_AVP Studio.avi
    Формат : AVI
    Формат/Информация : Audio Video Interleave
    Размер файла : 745 Мбайт
    Продолжительность : 1 ч. 31 м.
    Общий поток : 1138 Кбит/сек
    Программа кодирования : VirtualDubModRus 1.5.10.2 (build 2542/release)
    Библиотека кодирования : VirtualDubMod build 2542/release

    Видео
    Идентификатор : 0
    Формат : MPEG-4 Visual
    Профиль формата : Advanced Simple@L5
    Параметр BVOP формата : 1
    Параметр QPel формата : Нет
    Параметр GMC формата : Без точки перехода
    Параметр матрицы формата : Выборочная
    Идентификатор кодека : XVID
    Идентификатор кодека/Подсказка : XviD
    Продолжительность : 1 ч. 31 м.
    Битрейт : 1000 Кбит/сек
    Ширина : 704 пикселя
    Высота : 384 пикселя
    Соотношение сторон : 16:9
    Частота кадров : 25,000 кадров/сек
    Цветовое пространство : YUV
    Субдискретизация насыщенности : 4:2:0
    Битовая глубина : 8 бит
    Тип развёртки : Прогрессивная
    Метод сжатия : С потерями
    Бит/(Пиксели*Кадры) : 0.148
    Размер потока : 655 Мбайт (88%)
    Библиотека кодирования : XviD 73

    Аудио
    Идентификатор : 1
    Формат : MPEG Audio
    Версия формата : Version 1
    Профиль формата : Layer 3
    Идентификатор кодека : 55
    Идентификатор кодека/Подсказка : MP3
    Продолжительность : 1 ч. 31 м.
    Вид битрейта : Постоянный
    Битрейт : 128 Кбит/сек
    Каналы : 2 канала
    Частота : 48,0 КГц
    Метод сжатия : С потерями
    Размер потока : 83,8 Мбайт (11%)
    Выравнивание : Соединение по промежуткам
    Продолжительность промежутка : 40 мс. (1,00 видеокадр)
    Время предзагрузки промежутка : 504 мс.
    Библиотека кодирования : LAME3.99r
    Залил: AVPStudio
    Размер скачиваемого торрента: 745.03 MB (781219840 Bytes)


    Флюк / Fluke (1995) HDTVRip от Youtracker торрент скачать бесплатно
    загрузка...
    Рейтинг →
     (голосов: 1, оценка 5/5, голосовать можно 1 раз )

    Другие торренты по теме:

  • Флюк / Fluke (1995) HDTVRip-AVC от ExKinoRay скачать через торрент бесплатно
  • Флюк / Fluke (1995) HDTVRip-AVC от New-Team скачать через торрент бесплатно
  • Флюк / Fluke (1995) HDTVRip от New-Team скачать через торрент бесплатно
  • Флюк / Fluke (1995) WEBRip 1080p | P2, D, A


    • Комментарии (0):

      Информация

      Информация

        Посетители, находящиеся в группе Гости, не могут оставлять комментарии в данной новости.

        ↓ Меню



        ↓ Опрос

        А Вы добавили сайт в закладки?
        Да
        Не


        Top 10 за месяц (Фильмы)